<?xml version="1.0" standalone="no"?>
<!DOCTYPE svg PUBLIC "-//W3C//DTD SVG 1.1//EN" "http://www.w3.org/Graphics/SVG/1.1/DTD/svg11.dtd" >
<svg xmlns="http://www.w3.org/2000/svg">
<metadata>Generated by IcoMoon</metadata>
<defs>
<font id="icomoon" horiz-adv-x="1024">
<font-face units-per-em="1024" ascent="960" descent="-64" />
<missing-glyph horiz-adv-x="1024" />
<glyph unicode="&#x20;" horiz-adv-x="512" d="" />
<glyph unicode="&#xe900;" glyph-name="dots-three-vertical" d="M512.051 560.64c-62.208 0-112.691-50.432-112.691-112.64s50.483-112.64 112.691-112.64c62.208 0 112.589 50.432 112.589 112.64s-50.381 112.64-112.589 112.64zM512.051 693.76c62.208 0 112.589 50.483 112.589 112.64s-50.381 112.64-112.589 112.64c-62.208 0-112.691-50.432-112.691-112.64s50.483-112.64 112.691-112.64zM512.051 202.24c-62.208 0-112.691-50.432-112.691-112.64s50.483-112.64 112.691-112.64c62.208 0 112.589 50.432 112.589 112.64s-50.381 112.64-112.589 112.64z" />
<glyph unicode="&#xe901;" glyph-name="sphere" d="M480 883.2c-265.096 0-480-214.904-480-480 0-265.098 214.904-480 480-480 265.098 0 480 214.902 480 480 0 265.096-214.902 480-480 480zM751.59 243.2c8.58 40.454 13.996 83.392 15.758 128h127.446c-3.336-44.196-13.624-87.114-30.68-128h-112.524zM208.41 563.2c-8.58-40.454-13.996-83.392-15.758-128h-127.444c3.336 44.194 13.622 87.114 30.678 128h112.524zM686.036 563.2c9.614-40.962 15.398-83.854 17.28-128h-191.316v128h174.036zM512 627.2v187.338c14.59-4.246 29.044-11.37 43.228-21.37 26.582-18.74 52.012-47.608 73.54-83.486 14.882-24.802 27.752-52.416 38.496-82.484h-155.264zM331.232 709.684c21.528 35.878 46.956 64.748 73.54 83.486 14.182 10 28.638 17.124 43.228 21.37v-187.34h-155.264c10.746 30.066 23.616 57.68 38.496 82.484zM448 563.2v-128h-191.314c1.88 44.146 7.666 87.038 17.278 128h174.036zM95.888 243.2c-17.056 40.886-27.342 83.804-30.678 128h127.444c1.762-44.608 7.178-87.546 15.758-128h-112.524zM256.686 371.2h191.314v-128h-174.036c-9.612 40.96-15.398 83.854-17.278 128zM448 179.2v-187.34c-14.588 4.246-29.044 11.372-43.228 21.37-26.584 18.74-52.014 47.61-73.54 83.486-14.882 24.804-27.75 52.418-38.498 82.484h155.266zM628.768 96.716c-21.528-35.876-46.958-64.746-73.54-83.486-14.184-9.998-28.638-17.124-43.228-21.37v187.34h155.266c-10.746-30.066-23.616-57.68-38.498-82.484zM512 243.2v128h191.314c-1.88-44.146-7.666-87.040-17.28-128h-174.034zM767.348 435.2c-1.762 44.608-7.178 87.546-15.758 128h112.524c17.056-40.886 27.344-83.806 30.68-128h-127.446zM830.658 627.2h-95.9c-18.638 58.762-44.376 110.294-75.316 151.428 42.536-20.34 81.058-47.616 114.714-81.272 21.48-21.478 40.362-44.938 56.502-70.156zM185.844 697.356c33.658 33.658 72.18 60.932 114.714 81.272-30.942-41.134-56.676-92.666-75.316-151.428h-95.898c16.138 25.218 35.022 48.678 56.5 70.156zM129.344 179.2h95.898c18.64-58.762 44.376-110.294 75.318-151.43-42.536 20.34-81.058 47.616-114.714 81.274-21.48 21.478-40.364 44.938-56.502 70.156zM774.156 109.044c-33.656-33.658-72.18-60.934-114.714-81.274 30.942 41.134 56.678 92.668 75.316 151.43h95.9c-16.14-25.218-35.022-48.678-56.502-70.156z" />
<glyph unicode="&#xe902;" glyph-name="earth" d="M512 947.2c-282.77 0-512-229.23-512-512s229.23-512 512-512 512 229.23 512 512-229.23 512-512 512zM512-12.802c-62.958 0-122.872 13.012-177.23 36.452l233.148 262.29c5.206 5.858 8.082 13.422 8.082 21.26v96c0 17.674-14.326 32-32 32-112.99 0-232.204 117.462-233.374 118.626-6 6.002-14.14 9.374-22.626 9.374h-128c-17.672 0-32-14.328-32-32v-192c0-12.122 6.848-23.202 17.69-28.622l110.31-55.156v-187.886c-116.052 80.956-192 215.432-192 367.664 0 68.714 15.49 133.806 43.138 192h116.862c8.488 0 16.626 3.372 22.628 9.372l128 128c6 6.002 9.372 14.14 9.372 22.628v77.412c40.562 12.074 83.518 18.588 128 18.588 70.406 0 137.004-16.26 196.282-45.2-4.144-3.502-8.176-7.164-12.046-11.036-36.266-36.264-56.236-84.478-56.236-135.764s19.97-99.5 56.236-135.764c36.434-36.432 85.218-56.264 135.634-56.26 3.166 0 6.342 0.080 9.518 0.236 13.814-51.802 38.752-186.656-8.404-372.334-0.444-1.744-0.696-3.488-0.842-5.224-81.324-83.080-194.7-134.656-320.142-134.656z" />
<glyph unicode="&#xe903;" glyph-name="globe" d="M723.243 456.534c-9.131 114.773-47.019 228.395-114.091 328.96 66.987-17.451 126.848-52.565 174.379-100.096 60.075-60.075 100.309-139.861 110.123-228.864zM609.237 42.283c63.275 94.976 103.936 207.061 113.877 328.917h170.539c-9.813-89.003-50.048-168.789-110.123-228.864-47.488-47.488-107.349-82.603-174.293-100.053zM300.757 371.2c9.131-114.773 47.019-228.395 114.091-328.96-66.987 17.451-126.848 52.565-174.379 100.096-60.075 60.075-100.309 139.861-110.123 228.864zM414.763 785.451c-63.232-94.976-103.936-207.061-113.877-328.917h-170.539c9.813 89.003 50.048 168.789 110.123 228.864 47.531 47.488 107.349 82.603 174.293 100.053zM511.872 883.2c-129.536-0.043-246.869-52.608-331.733-137.472-84.907-84.864-137.472-202.283-137.472-331.861s52.565-246.997 137.472-331.861c84.821-84.864 202.155-137.429 331.691-137.472 0.043 0 0.128 0 0.171 0s0.085 0 0.128 0c129.536 0.043 246.869 52.608 331.733 137.472 84.907 84.864 137.472 202.283 137.472 331.861s-52.565 246.997-137.472 331.861c-84.821 84.864-202.155 137.429-331.691 137.472-0.043 0-0.128 0-0.171 0s-0.085 0-0.128 0zM637.696 371.2c-10.752-118.955-56.149-228.693-125.653-317.909-73.771 94.763-115.456 205.568-125.653 317.909zM511.957 774.443c73.771-94.763 115.456-205.568 125.653-317.909h-251.307c10.752 118.955 56.149 228.693 125.653 317.909z" />
<glyph unicode="&#xe904;" glyph-name="clock" d="M981.333 413.867c0 129.579-52.565 246.997-137.472 331.861s-202.283 137.472-331.861 137.472-246.997-52.565-331.861-137.472-137.472-202.283-137.472-331.861 52.565-246.997 137.472-331.861 202.283-137.472 331.861-137.472 246.997 52.565 331.861 137.472 137.472 202.283 137.472 331.861zM896 413.867c0-106.069-42.923-201.984-112.469-271.531s-165.461-112.469-271.531-112.469-201.984 42.923-271.531 112.469-112.469 165.461-112.469 271.531 42.923 201.984 112.469 271.531 165.461 112.469 271.531 112.469 201.984-42.923 271.531-112.469 112.469-165.461 112.469-271.531zM469.333 669.867v-256c0-16.597 9.472-31.019 23.595-38.144l170.667-85.333c21.077-10.539 46.72-2.005 57.259 19.072s2.005 46.72-19.072 57.259l-147.115 73.515v229.632c0 23.552-19.115 42.667-42.667 42.667s-42.667-19.115-42.667-42.667z" />
<glyph unicode="&#xe905;" glyph-name="git-merge" d="M853.333 157.867c0-23.595-9.515-44.843-25.003-60.331s-36.736-25.003-60.331-25.003-44.843 9.515-60.331 25.003-25.003 36.736-25.003 60.331 9.515 44.843 25.003 60.331 36.736 25.003 60.331 25.003 44.843-9.515 60.331-25.003 25.003-36.736 25.003-60.331zM341.333 669.867c0-23.595-9.515-44.843-25.003-60.331s-36.736-25.003-60.331-25.003-44.843 9.515-60.331 25.003-25.003 36.736-25.003 60.331 9.515 44.843 25.003 60.331 36.736 25.003 60.331 25.003 44.843-9.515 60.331-25.003 25.003-36.736 25.003-60.331zM298.667 29.867v255.957c12.117-16.171 25.387-31.403 39.637-45.653 68.864-68.864 161.237-114.304 264.021-123.307 7.552-30.677 23.424-58.069 45.013-79.659 30.805-30.848 73.557-50.005 120.661-50.005s89.856 19.157 120.661 50.005 50.005 73.557 50.005 120.661-19.157 89.856-50.005 120.661-73.557 50.005-120.661 50.005-89.856-19.157-120.661-50.005c-20.736-20.736-36.181-46.848-44.075-76.075-79.573 8.533-150.912 44.331-204.587 98.005s-89.515 125.013-98.005 204.587c29.141 7.936 55.253 23.424 75.989 44.16 30.848 30.805 50.005 73.557 50.005 120.661s-19.157 89.856-50.005 120.661-73.557 50.005-120.661 50.005-89.856-19.157-120.661-50.005-50.005-73.557-50.005-120.661 19.157-89.856 50.005-120.661c21.163-21.205 48-36.907 77.995-44.629v-474.709c0-23.552 19.115-42.667 42.667-42.667s42.667 19.115 42.667 42.667z" />
<glyph unicode="&#xe906;" glyph-name="git-pull-request" d="M853.333 157.867c0-23.595-9.515-44.843-25.003-60.331s-36.736-25.003-60.331-25.003-44.843 9.515-60.331 25.003-25.003 36.736-25.003 60.331 9.515 44.843 25.003 60.331 36.736 25.003 60.331 25.003 44.843-9.515 60.331-25.003 25.003-36.736 25.003-60.331zM341.333 669.867c0-23.595-9.515-44.843-25.003-60.331s-36.736-25.003-60.331-25.003-44.843 9.515-60.331 25.003-25.003 36.736-25.003 60.331 9.515 44.843 25.003 60.331 36.736 25.003 60.331 25.003 44.843-9.515 60.331-25.003 25.003-36.736 25.003-60.331zM554.667 627.2h128c11.776 0 22.4-4.736 30.165-12.501s12.501-18.389 12.501-30.165v-261.376c-29.995-7.723-56.832-23.424-77.995-44.587-30.848-30.848-50.005-73.6-50.005-120.704s19.157-89.856 50.005-120.661 73.557-50.005 120.661-50.005 89.856 19.157 120.661 50.005 50.005 73.557 50.005 120.661-19.157 89.856-50.005 120.661c-21.205 21.205-48 36.864-77.995 44.587v261.419c0 35.328-14.379 67.413-37.504 90.496s-55.168 37.504-90.496 37.504h-128c-23.552 0-42.667-19.115-42.667-42.667s19.115-42.667 42.667-42.667zM213.333 504.576v-474.709c0-23.552 19.115-42.667 42.667-42.667s42.667 19.115 42.667 42.667v474.709c29.995 7.723 56.832 23.424 77.995 44.587 30.848 30.848 50.005 73.6 50.005 120.704s-19.157 89.856-50.005 120.661-73.557 50.005-120.661 50.005-89.856-19.157-120.661-50.005-50.005-73.557-50.005-120.661 19.157-89.856 50.005-120.661c21.163-21.205 48-36.907 77.995-44.629z" />
<glyph unicode="&#xe907;" glyph-name="grid" d="M128 840.534c-23.552 0-42.667-19.115-42.667-42.667v-298.667c0-23.552 19.115-42.667 42.667-42.667h298.667c23.552 0 42.667 19.115 42.667 42.667v298.667c0 23.552-19.115 42.667-42.667 42.667zM170.667 755.2h213.333v-213.333h-213.333zM597.333 840.534c-23.552 0-42.667-19.115-42.667-42.667v-298.667c0-23.552 19.115-42.667 42.667-42.667h298.667c23.552 0 42.667 19.115 42.667 42.667v298.667c0 23.552-19.115 42.667-42.667 42.667zM640 755.2h213.333v-213.333h-213.333zM597.333 371.2c-23.552 0-42.667-19.115-42.667-42.667v-298.667c0-23.552 19.115-42.667 42.667-42.667h298.667c23.552 0 42.667 19.115 42.667 42.667v298.667c0 23.552-19.115 42.667-42.667 42.667zM640 285.867h213.333v-213.333h-213.333zM128 371.2c-23.552 0-42.667-19.115-42.667-42.667v-298.667c0-23.552 19.115-42.667 42.667-42.667h298.667c23.552 0 42.667 19.115 42.667 42.667v298.667c0 23.552-19.115 42.667-42.667 42.667zM170.667 285.867h213.333v-213.333h-213.333z" />
<glyph unicode="&#xe908;" glyph-name="message-square" d="M938.667 285.867v426.667c0 35.328-14.379 67.413-37.504 90.496s-55.168 37.504-90.496 37.504h-597.333c-35.328 0-67.413-14.379-90.496-37.504s-37.504-55.168-37.504-90.496v-682.667c0-10.923 4.181-21.845 12.501-30.165 16.683-16.683 43.691-16.683 60.331 0l158.165 158.165h494.336c35.328 0 67.413 14.379 90.496 37.504s37.504 55.168 37.504 90.496zM853.333 285.867c0-11.776-4.736-22.4-12.501-30.165s-18.389-12.501-30.165-12.501h-512c-11.776 0-22.443-4.779-30.165-12.501l-97.835-97.835v579.669c0 11.776 4.736 22.4 12.501 30.165s18.389 12.501 30.165 12.501h597.333c11.776 0 22.4-4.736 30.165-12.501s12.501-18.389 12.501-30.165z" />
<glyph unicode="&#xe909;" glyph-name="server" d="M170.667 883.2c-35.328 0-67.413-14.379-90.496-37.504s-37.504-55.168-37.504-90.496v-170.667c0-35.328 14.379-67.413 37.504-90.496s55.168-37.504 90.496-37.504h682.667c35.328 0 67.413 14.379 90.496 37.504s37.504 55.168 37.504 90.496v170.667c0 35.328-14.379 67.413-37.504 90.496s-55.168 37.504-90.496 37.504zM170.667 797.867h682.667c11.776 0 22.4-4.736 30.165-12.501s12.501-18.389 12.501-30.165v-170.667c0-11.776-4.736-22.4-12.501-30.165s-18.389-12.501-30.165-12.501h-682.667c-11.776 0-22.4 4.736-30.165 12.501s-12.501 18.389-12.501 30.165v170.667c0 11.776 4.736 22.4 12.501 30.165s18.389 12.501 30.165 12.501zM170.667 371.2c-35.328 0-67.413-14.379-90.496-37.504s-37.504-55.168-37.504-90.496v-170.667c0-35.328 14.379-67.413 37.504-90.496s55.168-37.504 90.496-37.504h682.667c35.328 0 67.413 14.379 90.496 37.504s37.504 55.168 37.504 90.496v170.667c0 35.328-14.379 67.413-37.504 90.496s-55.168 37.504-90.496 37.504zM170.667 285.867h682.667c11.776 0 22.4-4.736 30.165-12.501s12.501-18.389 12.501-30.165v-170.667c0-11.776-4.736-22.4-12.501-30.165s-18.389-12.501-30.165-12.501h-682.667c-11.776 0-22.4 4.736-30.165 12.501s-12.501 18.389-12.501 30.165v170.667c0 11.776 4.736 22.4 12.501 30.165s18.389 12.501 30.165 12.501zM298.667 669.867c0 23.552-19.115 42.667-42.667 42.667s-42.667-19.115-42.667-42.667 19.115-42.667 42.667-42.667 42.667 19.115 42.667 42.667zM298.667 157.867c0 23.552-19.115 42.667-42.667 42.667s-42.667-19.115-42.667-42.667 19.115-42.667 42.667-42.667 42.667 19.115 42.667 42.667z" />
<glyph unicode="&#xe90a;" glyph-name="users" d="M768 29.867v85.333c0 58.88-23.936 112.299-62.464 150.869s-91.989 62.464-150.869 62.464h-341.333c-58.88 0-112.299-23.936-150.869-62.464s-62.464-91.989-62.464-150.869v-85.333c0-23.552 19.115-42.667 42.667-42.667s42.667 19.115 42.667 42.667v85.333c0 35.371 14.293 67.285 37.504 90.496s55.125 37.504 90.496 37.504h341.333c35.371 0 67.285-14.293 90.496-37.504s37.504-55.125 37.504-90.496v-85.333c0-23.552 19.115-42.667 42.667-42.667s42.667 19.115 42.667 42.667zM597.333 627.2c0 58.88-23.936 112.299-62.464 150.869s-91.989 62.464-150.869 62.464-112.299-23.936-150.869-62.464-62.464-91.989-62.464-150.869 23.936-112.299 62.464-150.869 91.989-62.464 150.869-62.464 112.299 23.936 150.869 62.464 62.464 91.989 62.464 150.869zM512 627.2c0-35.371-14.293-67.285-37.504-90.496s-55.125-37.504-90.496-37.504-67.285 14.293-90.496 37.504-37.504 55.125-37.504 90.496 14.293 67.285 37.504 90.496 55.125 37.504 90.496 37.504 67.285-14.293 90.496-37.504 37.504-55.125 37.504-90.496zM1024 29.867v85.333c-0.043 53.12-19.499 101.76-51.883 139.136-27.819 32.128-65.195 55.936-107.904 67.243-22.784 6.016-46.123-7.552-52.139-30.336s7.552-46.123 30.336-52.139c25.899-6.869 48.469-21.248 65.195-40.619 19.413-22.443 31.019-51.456 31.061-83.285v-85.333c0-23.552 19.115-42.667 42.667-42.667s42.667 19.115 42.667 42.667zM672.085 750.976c34.261-8.789 61.653-30.507 78.379-58.752s22.656-62.72 13.867-96.981c-7.509-29.312-24.533-53.589-47.147-70.485-13.397-10.027-28.8-17.493-45.355-21.803-22.784-5.973-36.437-29.312-30.421-52.096s29.312-36.437 52.096-30.421c27.179 7.125 52.565 19.413 74.795 36.011 37.675 28.16 66.219 68.821 78.72 117.675 14.592 57.045 4.693 114.731-23.125 161.621s-73.6 83.328-130.645 97.963c-22.827 5.845-46.080-7.936-51.925-30.763s7.936-46.080 30.763-51.925z" />
<glyph unicode="&#xe90b;" glyph-name="map" d="M298.667 767.019v-584.405l-213.333-121.899v584.405zM725.333 60.715v584.405l213.333 121.899v-584.363zM662.827-50.56c3.499-1.835 7.253-3.2 11.264-4.011 2.816-0.597 5.717-0.896 8.576-0.896 7.381 0 14.677 1.963 21.163 5.632l0.64 0.384 298.027 170.283c13.696 7.808 21.419 22.101 21.504 37.035v682.667c0 23.552-19.115 42.667-42.667 42.667-7.808 0-15.104-2.091-21.163-5.632l-278.827-159.317-320.128 160.085c-3.541 1.792-7.296 3.2-11.264 4.011-2.859 0.555-5.76 0.853-8.619 0.853-7.424 0-14.72-1.963-21.163-5.632l-0.64-0.341-298.027-170.325c-13.696-7.808-21.419-22.101-21.504-37.035v-682.667c0-23.552 19.115-42.667 42.667-42.667 7.808 0 15.104 2.091 21.163 5.632l278.827 159.317zM640 643.499v-587.264l-256 128v587.264z" />
<glyph unicode="&#xe90c;" glyph-name="repeat" d="M170.667 456.534v85.333c0 35.371 14.293 67.285 37.504 90.496s55.125 37.504 90.496 37.504h494.336l-97.835-97.835c-16.683-16.683-16.683-43.691 0-60.331s43.691-16.683 60.331 0l170.667 170.667c4.096 4.096 7.168 8.789 9.259 13.824s3.243 10.539 3.243 16.341c0 5.547-1.067 11.136-3.243 16.341-2.091 5.035-5.163 9.728-9.259 13.824l-170.667 170.667c-16.683 16.683-43.691 16.683-60.331 0s-16.683-43.691 0-60.331l97.835-97.835h-494.336c-58.88 0-112.299-23.936-150.869-62.464s-62.464-91.989-62.464-150.869v-85.333c0-23.552 19.115-42.667 42.667-42.667s42.667 19.115 42.667 42.667zM853.333 371.2v-85.333c0-35.371-14.293-67.285-37.504-90.496s-55.125-37.504-90.496-37.504h-494.336l97.835 97.835c16.683 16.683 16.683 43.691 0 60.331s-43.691 16.683-60.331 0l-170.667-170.667c-4.096-4.096-7.168-8.789-9.259-13.824-6.4-15.445-3.328-33.92 9.259-46.507l170.667-170.667c16.683-16.683 43.691-16.683 60.331 0s16.683 43.691 0 60.331l-97.835 97.835h494.336c58.88 0 112.299 23.936 150.869 62.464s62.464 91.989 62.464 150.869v85.333c0 23.552-19.115 42.667-42.667 42.667s-42.667-19.115-42.667-42.667z" />
<glyph unicode="&#xe90d;" glyph-name="dashboard" d="M512-64c-282.77 0-512 229.23-512 512s229.23 512 512 512v0c282.77 0 512-229.23 512-512s-229.23-512-512-512v0zM225.28 155.648c80.288 55.312 179.647 88.345 286.72 88.345s206.432-33.033 288.44-89.464l-1.72 1.119c75.859 74.399 122.88 177.965 122.88 292.513 0 226.216-183.384 409.6-409.6 409.6s-409.6-183.384-409.6-409.6c0-114.548 47.021-218.114 122.814-292.449l0.066-0.064zM538.624 546.816l154.624 154.624 72.192-72.192-154.624-154.624c2.245-7.999 3.535-17.186 3.535-26.673 0-56.554-45.846-102.4-102.4-102.4s-102.4 45.846-102.4 102.4c0 56.554 45.846 102.4 102.4 102.4 9.488 0 18.674-1.29 27.393-3.705l-0.72 0.17z" />
<glyph unicode="&#xe90e;" glyph-name="drag_indicator" d="M640 243.867q34 0 60-26t26-60-26-60-60-26-60 26-26 60 26 60 60 26zM640 499.867q34 0 60-26t26-60-26-60-60-26-60 26-26 60 26 60 60 26zM640 583.867q-34 0-60 26t-26 60 26 60 60 26 60-26 26-60-26-60-60-26zM384 755.867q34 0 60-26t26-60-26-60-60-26-60 26-26 60 26 60 60 26zM384 499.867q34 0 60-26t26-60-26-60-60-26-60 26-26 60 26 60 60 26zM470 157.867q0-34-26-60t-60-26-60 26-26 60 26 60 60 26 60-26 26-60z" />
<glyph unicode="&#xe90f;" glyph-name="chevron-down" d="M225.835 511.702l256-256c16.683-16.683 43.691-16.683 60.331 0l256 256c16.683 16.683 16.683 43.691 0 60.331s-43.691 16.683-60.331 0l-225.835-225.835-225.835 225.835c-16.683 16.683-43.691 16.683-60.331 0s-16.683-43.691 0-60.331z" />
<glyph unicode="&#xe910;" glyph-name="checkmark" d="M512 851.2c-229.76 0-416-186.24-416-416s186.24-416 416-416 416 186.24 416 416-186.24 416-416 416zM744.256 553.376l-303.552-303.52c-7.616-7.584-19.936-7.584-27.552 0l-6.112 6.112-0.032-0.032-167.008 168.192c-7.616 7.616-7.616 19.968 0 27.584l41.408 41.376c7.616 7.616 19.968 7.616 27.584 0l118.048-118.912 248.192 248.192c7.616 7.616 19.968 7.616 27.584 0l41.408-41.408c7.648-7.584 7.648-19.936 0.032-27.584z" />
<glyph unicode="&#xe911;" glyph-name="alert-circle" d="M981.333 413.867c0 129.579-52.565 246.997-137.472 331.861s-202.283 137.472-331.861 137.472-246.997-52.565-331.861-137.472-137.472-202.283-137.472-331.861 52.565-246.997 137.472-331.861 202.283-137.472 331.861-137.472 246.997 52.565 331.861 137.472 137.472 202.283 137.472 331.861zM896 413.867c0-106.069-42.923-201.984-112.469-271.531s-165.461-112.469-271.531-112.469-201.984 42.923-271.531 112.469-112.469 165.461-112.469 271.531 42.923 201.984 112.469 271.531 165.461 112.469 271.531 112.469 201.984-42.923 271.531-112.469 112.469-165.461 112.469-271.531zM469.333 584.534v-170.667c0-23.552 19.115-42.667 42.667-42.667s42.667 19.115 42.667 42.667v170.667c0 23.552-19.115 42.667-42.667 42.667s-42.667-19.115-42.667-42.667zM554.667 243.2c0 23.552-19.115 42.667-42.667 42.667s-42.667-19.115-42.667-42.667 19.115-42.667 42.667-42.667 42.667 19.115 42.667 42.667z" />
<glyph unicode="&#xe912;" glyph-name="alert-octagon" d="M335.36 883.2c-10.923 0-21.845-4.181-30.165-12.501l-250.027-250.027c-7.723-7.723-12.501-18.389-12.501-30.165v-353.28c0-10.923 4.181-21.845 12.501-30.165l250.027-250.027c7.723-7.723 18.389-12.501 30.165-12.501h353.28c10.923 0 21.845 4.181 30.165 12.501l250.027 250.027c7.723 7.723 12.501 18.389 12.501 30.165v353.28c0 10.923-4.181 21.845-12.501 30.165l-250.027 250.027c-7.723 7.723-18.389 12.501-30.165 12.501zM353.024 797.867h317.952l225.024-225.024v-317.952l-225.024-225.024h-317.952l-225.024 225.024v317.952zM469.333 584.534v-170.667c0-23.552 19.115-42.667 42.667-42.667s42.667 19.115 42.667 42.667v170.667c0 23.552-19.115 42.667-42.667 42.667s-42.667-19.115-42.667-42.667zM554.667 243.2c0 23.552-19.115 42.667-42.667 42.667s-42.667-19.115-42.667-42.667 19.115-42.667 42.667-42.667 42.667 19.115 42.667 42.667z" />
<glyph unicode="&#xe913;" glyph-name="alert-triangle" d="M475.648 739.243c3.115 5.248 7.893 10.325 14.251 14.165 10.069 6.101 21.589 7.595 32.256 4.949s20.224-9.216 26.197-19.115l361.216-603.008c3.285-5.589 5.461-12.715 5.547-20.565 0.128-11.776-4.48-22.443-12.16-30.293s-18.261-12.715-29.568-12.843h-722.645c-6.485 0.043-13.696 1.749-20.523 5.717-10.197 5.888-17.024 15.317-19.883 25.899s-1.621 22.144 3.925 31.787zM402.432 783.104l-361.387-603.307c-18.005-31.189-21.589-66.133-13.141-97.707s29.013-60.075 59.648-77.739c19.797-11.435 41.643-17.067 62.933-17.152h722.901c35.797 0.384 67.712 15.104 90.581 38.485s36.864 55.595 36.48 90.923c-0.256 22.869-6.528 44.544-17.323 62.891l-361.557 603.605c-18.432 30.421-47.36 50.389-79.104 58.155s-66.603 3.456-96.811-14.891c-18.304-11.093-33.067-26.24-43.179-43.264zM469.333 541.867v-170.667c0-23.552 19.115-42.667 42.667-42.667s42.667 19.115 42.667 42.667v170.667c0 23.552-19.115 42.667-42.667 42.667s-42.667-19.115-42.667-42.667zM554.667 200.534c0 23.552-19.115 42.667-42.667 42.667s-42.667-19.115-42.667-42.667 19.115-42.667 42.667-42.667 42.667 19.115 42.667 42.667z" />
<glyph unicode="&#xe914;" glyph-name="check-circle" d="M896 453.12v-39.253c-0.043-106.027-43.051-201.941-112.64-271.445s-165.547-112.384-271.573-112.299-201.984 43.051-271.445 112.64-112.384 165.504-112.341 271.573 43.051 201.941 112.64 271.445 165.547 112.384 271.573 112.341c56.747-0.043 110.336-12.331 155.691-33.067 21.419-9.813 46.763-0.341 56.533 21.077s0.341 46.763-21.077 56.533c-56.619 25.856-122.283 40.747-191.104 40.789-129.579 0.085-246.997-52.437-331.947-137.259s-137.557-202.24-137.643-331.819 52.437-246.997 137.259-331.947 202.197-137.6 331.776-137.643 246.997 52.437 331.947 137.259 137.6 202.197 137.685 331.819v39.253c0 23.552-19.115 42.667-42.667 42.667s-42.667-19.115-42.667-42.667zM908.501 785.366l-396.501-396.885-97.835 97.792c-16.683 16.683-43.691 16.683-60.331 0s-16.683-43.691 0-60.331l128-128c16.683-16.683 43.691-16.64 60.373 0l426.667 427.093c16.64 16.683 16.64 43.691-0.043 60.331s-43.691 16.64-60.331-0.043z" />
<glyph unicode="&#xe915;" glyph-name="flow-branch" d="M839.68 755.2c0 67.891-54.989 122.88-122.88 122.88s-122.88-54.989-122.88-122.88c0-49.203 29.082-91.341 70.861-110.95-4.198-81.101-65.024-108.646-170.752-148.275-44.544-16.742-93.645-35.277-135.629-63.181v210.995c42.24 19.456 71.68 61.901 71.68 111.411 0 67.891-54.989 122.88-122.88 122.88s-122.88-54.989-122.88-122.88c0-49.51 29.491-91.955 71.68-111.411v-391.629c-42.24-19.405-71.68-61.85-71.68-111.36 0-67.891 54.989-122.88 122.88-122.88s122.88 55.040 122.88 122.88c0 49.203-29.082 91.341-70.861 110.95 4.198 81.050 65.075 108.646 170.752 148.275 103.936 39.014 232.499 87.603 237.568 243.507 42.445 19.354 72.141 61.952 72.141 111.667zM307.2 826.112c39.117 0 70.861-31.693 70.861-70.912 0-39.117-31.744-70.912-70.861-70.912-39.168 0-70.861 31.795-70.861 70.912 0 39.219 31.693 70.912 70.861 70.912zM307.2 69.888c-39.219 0-70.912 31.795-70.912 70.912 0 39.219 31.693 70.912 70.912 70.912 39.117 0 70.861-31.693 70.861-70.912 0-39.117-31.744-70.912-70.861-70.912zM716.8 684.288c-39.219 0-70.912 31.795-70.912 70.912 0 39.219 31.693 70.912 70.912 70.912 39.117 0 70.861-31.693 70.861-70.912 0-39.117-31.744-70.912-70.861-70.912z" />
<glyph unicode="&#xe916;" glyph-name="flow-cascade" d="M716.8 212.48c-49.51 0-91.955-29.491-111.411-71.68h-170.189c-42.394 0-76.8 34.406-76.8 76.8v197.12c23.347-11.162 49.203-17.92 76.8-17.92h170.189c19.456-42.189 61.85-71.68 111.411-71.68 67.891 0 122.88 55.040 122.88 122.88s-54.989 122.88-122.88 122.88c-49.51 0-91.955-29.491-111.411-71.68h-170.189c-42.394 0-76.8 34.406-76.8 76.8v118.989c42.24 19.456 71.68 61.901 71.68 111.411 0 67.891-54.989 122.88-122.88 122.88s-122.88-54.989-122.88-122.88c0-49.51 29.491-91.955 71.68-111.411v-477.389c0-98.97 80.23-179.2 179.2-179.2h170.189c19.456-42.189 61.85-71.68 111.411-71.68 67.891 0 122.88 55.040 122.88 122.88s-54.989 122.88-122.88 122.88zM716.8 518.912c39.117 0 70.861-31.693 70.861-70.912 0-39.117-31.744-70.912-70.861-70.912-39.219 0-70.912 31.795-70.912 70.912 0.051 39.219 31.744 70.912 70.912 70.912zM307.2 877.312c39.117 0 70.861-31.693 70.861-70.912 0-39.117-31.744-70.912-70.861-70.912-39.168 0-70.861 31.795-70.861 70.912 0 39.219 31.693 70.912 70.861 70.912zM716.8 18.688c-39.219 0-70.912 31.795-70.912 70.912 0 39.219 31.693 70.912 70.912 70.912 39.117 0 70.861-31.693 70.861-70.912 0-39.117-31.744-70.912-70.861-70.912z" />
<glyph unicode="&#xe917;" glyph-name="list" d="M737.28 499.2h-296.96c-28.262 0-30.72-22.886-30.72-51.2s2.458-51.2 30.72-51.2h296.96c28.262 0 30.72 22.886 30.72 51.2s-2.458 51.2-30.72 51.2zM839.68 243.2h-399.36c-28.262 0-30.72-22.886-30.72-51.2s2.458-51.2 30.72-51.2h399.36c28.262 0 30.72 22.886 30.72 51.2s-2.458 51.2-30.72 51.2zM440.32 652.8h399.36c28.262 0 30.72 22.886 30.72 51.2s-2.458 51.2-30.72 51.2h-399.36c-28.262 0-30.72-22.886-30.72-51.2s2.458-51.2 30.72-51.2zM276.48 499.2h-92.16c-28.262 0-30.72-22.886-30.72-51.2s2.458-51.2 30.72-51.2h92.16c28.262 0 30.72 22.886 30.72 51.2s-2.458 51.2-30.72 51.2zM276.48 243.2h-92.16c-28.262 0-30.72-22.886-30.72-51.2s2.458-51.2 30.72-51.2h92.16c28.262 0 30.72 22.886 30.72 51.2s-2.458 51.2-30.72 51.2zM276.48 755.2h-92.16c-28.262 0-30.72-22.886-30.72-51.2s2.458-51.2 30.72-51.2h92.16c28.262 0 30.72 22.886 30.72 51.2s-2.458 51.2-30.72 51.2z" />
<glyph unicode="&#xe918;" glyph-name="flow-tree" d="M921.6 201.011v118.989c0 98.97-80.23 179.2-179.2 179.2h-102.4c-42.394 0-76.8 34.406-76.8 76.8v118.989c42.24 19.456 71.68 61.85 71.68 111.411 0 67.891-54.989 122.88-122.88 122.88s-122.88-54.989-122.88-122.88c0-49.51 29.491-91.955 71.68-111.411v-118.989c0-42.394-34.406-76.8-76.8-76.8h-102.4c-98.97 0-179.2-80.23-179.2-179.2v-118.989c-42.24-19.456-71.68-61.901-71.68-111.411 0-67.891 54.989-122.88 122.88-122.88s122.88 55.040 122.88 122.88c0 49.51-29.491 91.955-71.68 111.411v118.989c0 42.394 34.406 76.8 76.8 76.8h102.4c27.597 0 53.453 6.758 76.8 17.92v-213.709c-42.24-19.456-71.68-61.901-71.68-111.411 0-67.891 54.989-122.88 122.88-122.88s122.88 55.040 122.88 122.88c0 49.51-29.491 91.955-71.68 111.411v213.709c23.347-11.162 49.203-17.92 76.8-17.92h102.4c42.394 0 76.8-34.406 76.8-76.8v-118.989c-42.24-19.456-71.68-61.85-71.68-111.411 0-67.891 54.989-122.88 122.88-122.88s122.88 55.040 122.88 122.88c0 49.51-29.44 91.955-71.68 111.411zM512 877.312c39.117 0 70.861-31.693 70.861-70.912 0-39.117-31.744-70.912-70.861-70.912-39.168 0-70.861 31.795-70.861 70.912 0 39.219 31.693 70.912 70.861 70.912zM153.6 18.688c-39.219 0-70.912 31.795-70.912 70.912 0 39.219 31.693 70.912 70.912 70.912 39.117 0 70.861-31.693 70.861-70.912 0-39.117-31.744-70.912-70.861-70.912zM512 18.688c-39.219 0-70.912 31.795-70.912 70.912 0 39.219 31.693 70.912 70.912 70.912 39.117 0 70.861-31.693 70.861-70.912 0-39.117-31.744-70.912-70.861-70.912zM870.4 18.688c-39.219 0-70.912 31.795-70.912 70.912 0 39.219 31.693 70.912 70.912 70.912 39.117 0 70.861-31.693 70.861-70.912 0-39.117-31.744-70.912-70.861-70.912z" />
<glyph unicode="&#xe919;" glyph-name="area-graph" d="M1024 857.6v-819.2h-1007.616c-16.282 0-21.299 10.701-11.059 23.808l228.813 294.298c10.189 13.107 28.314 14.49 40.397 3.174l72.653-68.301c12.032-11.315 29.286-9.114 38.246 4.915l156.006 242.688c8.96 13.978 26.061 15.974 37.939 4.608l111.155-107.315c11.878-11.52 28.621-9.216 37.069 5.12l262.81 398.592c8.499 14.438 20.787 17.613 33.587 17.613z" />
<glyph unicode="&#xe91a;" glyph-name="attachment" d="M286.822-53.76c-66.202 0-128.205 28.416-172.954 73.728-86.784 87.859-110.95 241.203 10.701 364.339 71.219 72.090 356.659 361.114 499.098 505.344 50.586 51.2 114.944 71.014 176.538 54.272 60.57-16.384 110.131-66.611 126.362-127.898 16.486-62.464-3.021-127.642-53.555-178.842l-477.338-483.328c-27.238-27.597-58.061-43.93-88.986-47.206-30.669-3.277-59.904 6.656-80.384 27.392-37.069 37.683-42.394 108.39 19.354 170.854l335.258 339.456c13.773 13.926 36.096 13.926 49.869 0s13.773-36.557 0-50.483l-335.309-339.507c-28.979-29.286-31.642-57.293-19.302-69.837 5.427-5.427 13.619-7.936 23.091-6.861 14.49 1.485 31.027 11.059 46.541 26.675l477.338 483.277c32.768 33.178 45.312 72.192 35.328 109.824-9.83 37.12-39.834 67.482-76.442 77.466-37.171 10.086-75.776-2.662-108.544-35.84-142.438-144.282-427.827-433.254-499.098-505.344-92.979-94.157-70.707-202.547-10.701-263.322 60.058-60.774 167.014-83.405 260.045 10.854l499.098 505.344c13.773 13.926 36.096 13.926 49.869 0s13.773-36.557 0-50.534l-499.098-505.344c-58.829-59.494-124.723-84.48-186.778-84.48z" />
<glyph unicode="&#xe91b;" glyph-name="cog" d="M859.29 448c0 53.709 33.075 96 82.79 125.082-9.011 29.901-20.838 58.624-35.43 85.606-55.757-14.592-100.864 7.219-138.803 45.21-37.939 37.888-49.562 82.995-34.97 138.803-26.982 14.592-55.706 26.522-85.606 35.379-29.082-49.664-81.664-82.688-135.27-82.688-53.658 0-106.189 33.024-135.322 82.688-29.952-8.858-58.573-20.787-85.555-35.379 14.592-55.808 3.021-100.915-35.021-138.803-37.888-37.99-82.995-59.802-138.803-45.21-14.592-26.982-26.47-55.706-35.379-85.606 49.664-29.082 82.688-71.373 82.688-125.082 0-53.606-33.024-106.189-82.688-135.322 8.96-29.901 20.787-58.573 35.379-85.606 55.808 14.592 100.915 3.021 138.803-34.918 37.939-37.99 49.613-83.098 35.021-138.803 26.982-14.592 55.654-26.522 85.606-35.482 29.082 49.818 81.664 82.79 135.322 82.79 53.606 0 106.189-33.024 135.322-82.79 29.901 9.011 58.573 20.89 85.606 35.482-14.592 55.706-3.021 100.813 34.97 138.803 37.939 37.888 83.046 59.699 138.803 45.21 14.592 26.982 26.47 55.603 35.43 85.606-49.818 29.133-82.893 71.424-82.893 125.030zM512 261.018c-103.322 0-187.034 83.712-187.034 186.982 0 103.322 83.763 187.085 187.034 187.085 103.322 0 186.982-83.814 186.982-187.085 0-103.322-83.661-186.982-186.982-186.982z" />
<glyph unicode="&#xe91c;" glyph-name="gauge" d="M416.102 263.68c-35.277-61.286-11.52-111.616 37.478-139.878 48.947-28.314 104.499-23.808 139.878 37.478 35.277 61.184 258.406 607.488 239.002 618.701s-381.030-455.066-416.358-516.301zM512 652.8c22.426 0 44.237-1.894 65.587-5.581 22.426 28.109 47.514 59.085 71.936 88.474-43.622 12.595-89.702 19.507-137.523 19.507-287.078 0-512-242.125-512-551.219 0-18.995 0.819-37.99 2.509-56.474 2.509-28.211 27.648-48.896 55.501-46.49 28.211 2.611 48.998 27.392 46.49 55.603-1.382 15.462-2.099 31.488-2.099 47.36 0 251.699 179.917 448.819 409.6 448.819zM881.613 588.8c-14.285-38.4-29.389-77.517-42.701-111.309 51.968-75.264 82.688-169.677 82.688-273.51 0-16.179-0.768-32.512-2.202-48.282-2.56-28.211 18.176-53.094 46.336-55.706 1.536-0.102 3.123-0.205 4.71-0.205 26.163 0 48.538 20.019 50.944 46.592 1.69 18.944 2.611 38.298 2.611 57.6 0 151.245-53.914 286.208-142.387 384.819z" />
<glyph unicode="&#xe91d;" glyph-name="help-with-circle" d="M512 939.52c-271.462 0-491.52-220.058-491.52-491.52s220.058-491.52 491.52-491.52c271.411 0 491.52 220.058 491.52 491.571 0 271.411-220.109 491.469-491.52 491.469zM504.269 161.331h-2.611c-40.038 1.178-68.301 30.72-67.123 70.195 1.126 38.81 30.054 67.021 68.762 67.021l2.355-0.102c41.165-1.178 69.12-30.413 67.942-71.014-1.178-38.912-29.594-66.099-69.325-66.099zM672.768 495.718c-9.421-13.312-30.106-30.003-56.218-50.33l-28.774-19.814c-15.77-12.288-25.293-23.91-28.826-35.226-2.867-8.909-4.198-11.315-4.454-29.491v-4.608h-109.824l0.307 9.318c1.382 38.093 2.304 60.621 18.125 79.206 24.832 29.082 79.616 64.41 81.92 65.894 7.885 5.888 14.49 12.595 19.405 19.814 11.52 15.923 16.589 28.416 16.589 40.602 0 17.101-5.018 32.922-15.002 46.899-9.626 13.619-27.904 20.378-54.323 20.378-26.214 0-44.186-8.294-54.886-25.395-11.059-17.459-16.64-35.84-16.64-54.63v-4.71h-113.203l0.205 4.915c2.918 69.274 27.699 119.194 73.472 148.326 28.826 18.483 64.717 27.853 106.547 27.853 54.682 0 100.966-13.312 137.318-39.526 36.915-26.573 55.603-66.406 55.603-118.323-0.051-29.030-9.216-56.32-27.341-81.152z" />
<glyph unicode="&#xe91e;" glyph-name="pie-chart" d="M563.2 910.95v-462.797c0-28.365-22.989-51.354-51.354-51.354h-462.797c25.498-233.216 222.976-414.72 462.95-414.72 257.331 0 465.92 208.589 465.92 465.92 0 240.026-181.504 437.453-414.72 462.95zM460.8 910.95c-216.371-23.654-388.096-195.379-411.75-411.75h411.75v411.75z" />
<glyph unicode="&#xe91f;" glyph-name="sound-mix" d="M256 878.080c0 28.314-22.938 30.72-51.2 30.72-28.314 0-51.2-2.406-51.2-30.72v-430.080h102.4v430.080zM153.6 17.92c0-28.211 22.886-30.72 51.2-30.72 28.262 0 51.2 2.509 51.2 30.72v174.080h-102.4v-174.080zM327.629 396.8h-245.76c-28.314 0-30.669-22.938-30.669-51.2v-51.2c0-28.314 2.355-51.2 30.669-51.2h245.811c28.16 0 30.72 22.886 30.72 51.2v51.2c0 28.262-2.56 51.2-30.771 51.2zM942.029 345.6h-245.811c-28.262 0-30.618-22.938-30.618-51.2v-51.2c0-28.314 2.355-51.2 30.669-51.2h245.811c28.16 0 30.72 22.886 30.72 51.2v51.2c0 28.262-2.56 51.2-30.771 51.2zM665.6 601.6c0 28.262-2.56 51.2-30.771 51.2h-245.76c-28.314 0-30.669-22.938-30.669-51.2v-51.2c0-28.314 2.355-51.2 30.669-51.2h245.811c28.16 0 30.72 22.886 30.72 51.2v51.2zM563.2 878.080c0 28.314-22.938 30.72-51.2 30.72-28.314 0-51.2-2.406-51.2-30.72v-174.080h102.4v174.080zM460.8 17.92c0-28.211 22.886-30.72 51.2-30.72 28.262 0 51.2 2.509 51.2 30.72v430.080h-102.4v-430.080zM870.4 878.080c0 28.314-22.938 30.72-51.2 30.72-28.314 0-51.2-2.406-51.2-30.72v-481.28h102.4v481.28zM768 17.92c0-28.211 22.886-30.72 51.2-30.72 28.262 0 51.2 2.509 51.2 30.72v122.88h-102.4v-122.88z" />
<glyph unicode="&#xe920;" glyph-name="magnifying-glass" d="M898.304 168.090l-193.485 193.485c29.184 47.872 45.978 104.192 45.978 164.352 0 174.95-151.603 326.502-326.554 326.502-174.95 0.051-316.723-141.773-316.723-316.723 0-174.899 151.603-326.502 326.502-326.502 58.214 0 112.64 15.821 159.488 43.213l194.509-194.611c19.046-18.995 49.92-18.995 68.915 0l48.282 48.282c18.995 18.995 12.083 43.008-6.912 62.003zM205.005 535.706c0 121.139 98.15 219.29 219.238 219.29 121.139 0 229.069-107.878 229.069-229.069 0-121.088-98.202-219.29-219.29-219.29-121.139 0.051-229.018 107.981-229.018 229.069z" />
<glyph unicode="&#xe921;" glyph-name="activity" d="M938.667 456.534h-170.667c-18.731 0-34.645-12.075-40.491-29.184l-87.509-262.571-215.509 646.571c-7.467 22.357-31.616 34.432-53.973 27.008-13.227-4.395-22.827-14.635-27.008-27.008l-118.272-354.816h-139.904c-23.552 0-42.667-19.115-42.667-42.667s19.115-42.667 42.667-42.667h170.667c18.048 0.128 34.56 11.392 40.491 29.184l87.509 262.571 215.509-646.571c4.181-12.373 13.781-22.571 26.965-26.965 22.357-7.467 46.507 4.651 53.973 26.965l118.315 354.816h139.904c23.552 0 42.667 19.115 42.667 42.667s-19.115 42.667-42.667 42.667z" />
<glyph unicode="&#xe922;" glyph-name="crosshair" d="M981.333 413.867c0 129.579-52.565 246.997-137.472 331.861s-202.283 137.472-331.861 137.472-246.997-52.565-331.861-137.472-137.472-202.283-137.472-331.861 52.565-246.997 137.472-331.861 202.283-137.472 331.861-137.472 246.997 52.565 331.861 137.472 137.472 202.283 137.472 331.861zM554.667 32.214v125.653c0 23.552-19.115 42.667-42.667 42.667s-42.667-19.115-42.667-42.667v-125.653c-89.003 9.813-168.789 50.048-228.864 110.123s-100.309 139.861-110.123 228.864h125.653c23.552 0 42.667 19.115 42.667 42.667s-19.115 42.667-42.667 42.667h-125.653c9.813 89.003 50.048 168.789 110.123 228.864s139.861 100.309 228.864 110.123v-125.653c0-23.552 19.115-42.667 42.667-42.667s42.667 19.115 42.667 42.667v125.653c89.003-9.813 168.789-50.048 228.864-110.123s100.309-139.861 110.123-228.864h-125.653c-23.552 0-42.667-19.115-42.667-42.667s19.115-42.667 42.667-42.667h125.653c-9.813-89.003-50.048-168.789-110.123-228.864s-139.861-100.309-228.864-110.123z" />
<glyph unicode="&#xe923;" glyph-name="printer" d="M725.333 597.334h-426.667v213.333h426.667zM213.333 128v-128c0-23.552 19.115-42.667 42.667-42.667h512c23.552 0 42.667 19.115 42.667 42.667v128h42.667c35.328 0 67.413 14.379 90.496 37.504s37.504 55.168 37.504 90.496v213.333c0 35.328-14.379 67.413-37.504 90.496s-55.168 37.504-90.496 37.504h-42.667v256c0 23.552-19.115 42.667-42.667 42.667h-512c-23.552 0-42.667-19.115-42.667-42.667v-256h-42.667c-35.328 0-67.413-14.379-90.496-37.504s-37.504-55.168-37.504-90.496v-213.333c0-35.328 14.379-67.413 37.504-90.496s55.168-37.504 90.496-37.504zM256 384c-23.552 0-42.667-19.115-42.667-42.667v-128h-42.667c-11.776 0-22.4 4.736-30.165 12.501s-12.501 18.389-12.501 30.165v213.333c0 11.776 4.736 22.4 12.501 30.165s18.389 12.501 30.165 12.501h682.667c11.776 0 22.4-4.736 30.165-12.501s12.501-18.389 12.501-30.165v-213.333c0-11.776-4.736-22.4-12.501-30.165s-18.389-12.501-30.165-12.501h-42.667v128c0 23.552-19.115 42.667-42.667 42.667zM298.667 298.667h426.667v-256h-426.667z" />
<glyph unicode="&#xe924;" glyph-name="mail" d="M128 600.704l359.552-251.691c14.507-10.027 33.92-10.496 48.939 0l359.509 251.691v-430.037c0-11.605-4.693-22.229-12.587-30.080s-18.475-12.587-30.080-12.587h-682.667c-11.605 0-22.229 4.693-30.080 12.587s-12.587 18.475-12.587 30.080zM42.667 683.392c0-0.427 0-0.853 0-1.28v-511.445c0-35.328 14.507-67.371 37.547-90.453s55.125-37.547 90.453-37.547h682.667c35.328 0 67.371 14.507 90.453 37.547s37.547 55.125 37.547 90.453v511.488c0 0.427 0 0.853 0 1.28-0.213 35.029-14.635 66.773-37.547 89.685-23.083 23.040-55.125 37.547-90.453 37.547h-682.667c-35.328 0-67.371-14.507-90.453-37.547-22.912-22.912-37.333-54.656-37.547-89.728zM891.477 701.696l-379.477-265.6-379.477 265.6c2.048 4.096 4.779 7.808 8.021 11.051 7.893 7.893 18.517 12.587 30.123 12.587h682.667c11.605 0 22.229-4.693 30.080-12.587 3.243-3.243 5.973-6.997 8.021-11.051z" />
<glyph unicode="&#xe925;" glyph-name="link" d="M392.491 358.443c42.325-56.619 103.68-90.709 168.448-100.053s133.248 6.059 189.867 48.384c10.197 7.637 19.84 16 27.947 24.235l127.787 127.787c49.621 51.371 73.472 117.376 72.363 182.827s-27.264 130.603-78.123 179.669c-50.005 48.299-114.688 72.192-179.157 71.808-63.659-0.341-127.317-24.363-176.512-71.808l-73.856-73.429c-16.725-16.597-16.811-43.648-0.171-60.331s43.648-16.811 60.331-0.171l72.917 72.491c32.853 31.659 75.221 47.659 117.76 47.915 43.051 0.256 86.016-15.659 119.381-47.872 33.92-32.768 51.328-76.075 52.096-119.808s-15.147-87.637-47.36-121.003l-128.213-128.213c-4.864-4.949-11.221-10.539-18.261-15.787-37.76-28.245-83.285-38.485-126.592-32.256s-84.096 28.928-112.299 66.688c-14.123 18.859-40.832 22.741-59.733 8.619s-22.741-40.832-8.619-59.733zM631.509 494.891c-42.325 56.619-103.68 90.709-168.448 100.053s-133.291-6.059-189.909-48.384c-10.197-7.637-19.797-16-27.947-24.235l-127.787-127.787c-49.621-51.371-73.472-117.376-72.363-182.827s27.264-130.603 78.123-179.669c50.005-48.299 114.688-72.192 179.157-71.808 63.659 0.341 127.317 24.363 176.512 71.808l73.515 73.515c16.683 16.683 16.683 43.691 0 60.331s-43.691 16.683-60.331 0l-72.363-72.448c-32.853-31.659-75.221-47.659-117.76-47.915-43.051-0.256-86.016 15.659-119.381 47.872-33.92 32.768-51.328 76.075-52.096 119.808s15.147 87.637 47.36 121.003l128.213 128.213c4.864 4.949 11.221 10.539 18.261 15.787 37.76 28.245 83.285 38.485 126.592 32.256s84.096-28.928 112.299-66.688c14.123-18.859 40.832-22.741 59.733-8.619s22.741 40.832 8.619 59.733z" />
<glyph unicode="&#xe926;" glyph-name="copy" d="M469.333 597.334c-35.328 0-67.413-14.379-90.496-37.504s-37.504-55.168-37.504-90.496v-384c0-35.328 14.379-67.413 37.504-90.496s55.168-37.504 90.496-37.504h384c35.328 0 67.413 14.379 90.496 37.504s37.504 55.168 37.504 90.496v384c0 35.328-14.379 67.413-37.504 90.496s-55.168 37.504-90.496 37.504zM469.333 512h384c11.776 0 22.4-4.736 30.165-12.501s12.501-18.389 12.501-30.165v-384c0-11.776-4.736-22.4-12.501-30.165s-18.389-12.501-30.165-12.501h-384c-11.776 0-22.4 4.736-30.165 12.501s-12.501 18.389-12.501 30.165v384c0 11.776 4.736 22.4 12.501 30.165s18.389 12.501 30.165 12.501zM213.333 341.334h-42.667c-11.776 0-22.4 4.736-30.165 12.501s-12.501 18.389-12.501 30.165v384c0 11.776 4.736 22.4 12.501 30.165s18.389 12.501 30.165 12.501h384c11.776 0 22.4-4.736 30.165-12.501s12.501-18.389 12.501-30.165v-42.667c0-23.552 19.115-42.667 42.667-42.667s42.667 19.115 42.667 42.667v42.667c0 35.328-14.379 67.413-37.504 90.496s-55.168 37.504-90.496 37.504h-384c-35.328 0-67.413-14.379-90.496-37.504s-37.504-55.168-37.504-90.496v-384c0-35.328 14.379-67.413 37.504-90.496s55.168-37.504 90.496-37.504h42.667c23.552 0 42.667 19.115 42.667 42.667s-19.115 42.667-42.667 42.667z" />
<glyph unicode="&#xe927;" glyph-name="cancel-circle, close, remove, delete" d="M512 960c-282.77 0-512-229.23-512-512s229.23-512 512-512 512 229.23 512 512-229.23 512-512 512zM512 32c-229.75 0-416 186.25-416 416s186.25 416 416 416 416-186.25 416-416-186.25-416-416-416zM672 704l-160-160-160 160-96-96 160-160-160-160 96-96 160 160 160-160 96 96-160 160 160 160z" />
<glyph unicode="&#xe928;" glyph-name="external-link" d="M725.333 384v-256c0-11.776-4.736-22.4-12.501-30.165s-18.389-12.501-30.165-12.501h-469.333c-11.776 0-22.4 4.736-30.165 12.501s-12.501 18.389-12.501 30.165v469.333c0 11.776 4.736 22.4 12.501 30.165s18.389 12.501 30.165 12.501h256c23.552 0 42.667 19.115 42.667 42.667s-19.115 42.667-42.667 42.667h-256c-35.328 0-67.413-14.379-90.496-37.504s-37.504-55.168-37.504-90.496v-469.333c0-35.328 14.379-67.413 37.504-90.496s55.168-37.504 90.496-37.504h469.333c35.328 0 67.413 14.379 90.496 37.504s37.504 55.168 37.504 90.496v256c0 23.552-19.115 42.667-42.667 42.667s-42.667-19.115-42.667-42.667zM456.832 311.168l396.501 396.501v-153.003c0-23.552 19.115-42.667 42.667-42.667s42.667 19.115 42.667 42.667v256c0 5.803-1.152 11.307-3.243 16.341s-5.163 9.728-9.216 13.781c-0.043 0.043-0.043 0.043-0.085 0.085-3.925 3.925-8.619 7.083-13.781 9.216-5.035 2.091-10.539 3.243-16.341 3.243h-256c-23.552 0-42.667-19.115-42.667-42.667s19.115-42.667 42.667-42.667h153.003l-396.501-396.501c-16.683-16.683-16.683-43.691 0-60.331s43.691-16.683 60.331 0z" />
<glyph unicode="&#xe929;" glyph-name="actor" d="M830.459 429.454c0-75-60.799-135.799-135.799-135.799s-135.799 60.799-135.799 135.799c0 75 60.799 135.799 135.799 135.799s135.799-60.799 135.799-135.799zM963.675-12.649c-4.589 169.172-123.269 277.665-269.015 277.665s-264.426-108.499-269.015-277.665h538.030zM74.837 876.297v-542.325h154.684v165.916h127.792v-165.916h154.684v542.325h-437.16zM200.485 579.321h-60.151v84.49h60.151v-84.49zM200.485 709.48h-60.151v84.49h60.151v-84.49zM318.504 579.321h-60.151v84.49h60.151v-84.49zM318.504 709.48h-60.151v84.49h60.151v-84.49zM425.651 579.321h-54.156v84.49h54.156v-84.49zM425.651 709.48h-54.156v84.49h54.156v-84.49zM255.752 471.717h75.336v-138.117h-75.336v138.117z" />
<glyph unicode="&#xe92a;" glyph-name="alarm" d="M925.049 130.048l-35.137 0.205h-782.093l11.783 32.277c1.018 2.974 19.080 57.209 95.362 377.066 15.829 66.367 40.020 122.955 71.906 168.189 26.046 36.949 57.227 66.445 92.683 87.662 59.142 35.396 110.721 35.835 116.381 35.787h27.178c5.611 0.072 58.792-0.313 119.951-35.589 36.696-21.163 68.986-50.61 95.976-87.517 33.108-45.264 58.226-101.901 74.669-168.334 79.167-319.918 97.885-374.080 98.927-377.006l12.409-32.741zM174.752 178.666h682.498c-12.427 43.181-38.671 139.946-90.528 349.503-26.485 107.043-77.613 185.035-147.845 225.543-50.839 29.321-94.598 29.14-95.013 29.116h-0.578s-28.057 0-28.057 0c-2.204 0-44.62-0.452-93.255-30.405-66.312-40.833-114.695-118.313-139.916-224.056-50.074-209.955-75.368-306.666-87.307-349.702zM569.796 783.827c-0.090 0.223-9.386 22.999-22.090 46.92-17.195 32.379-28.087 43.331-32.325 46.721-4.136-2.739-14.787-12.035-31.109-41.736-12.355-22.481-21.036-44.264-21.127-44.481l-45.011 17.827c0.44 1.108 10.928 27.479 26.094 54.247 24.541 43.319 47.401 63.495 71.942 63.495s45.444-20.784 71.063-67.39c15.576-28.34 26.943-56.222 27.418-57.396l-44.854-18.207zM517.325 878.54v0 0zM514.351-43.168c-48.678 0-94.447 18.959-128.868 53.38s-53.38 80.184-53.38 128.868c0 4.859 0.199 9.832 0.596 14.769l1.788 22.265h359.709l1.788-22.265c0.397-4.937 0.596-9.91 0.596-14.769 0-48.678-18.959-94.447-53.38-128.868s-80.184-53.38-128.868-53.38zM380.998 127.7c5.786-68.498 63.386-122.462 133.353-122.462s127.567 53.964 133.353 122.462h-266.706z" />
<glyph unicode="&#xe92b;" glyph-name="asset" d="M354.48 187.228h270.605s90.296-23.129 100.336-91.6c3.673-25.040 0-59.544 0-59.544h-229.248v58.041s2.399 57.572-79.474 75.861c-21.704 4.846-62.225 17.243-62.225 17.243zM926.442 868.207h-828.889c-33.229 0-60.163-26.934-60.163-60.163v-510.62c0-33.229 26.934-60.163 60.163-60.163h828.889c33.229 0 60.163 26.934 60.163 60.163v510.62c0 33.229-26.934 60.163-60.163 60.163zM673.518 524.014l-43.353-6.722c-3.222-12.331-8.098-24.115-14.543-35.159l26.417-34.606c1.84-2.393 1.659-5.892-0.553-8.008l-32.676-32.952c-2.116-2.116-5.525-2.393-8.008-0.643l-35.255 26.050c-11.044-6.535-22.918-11.411-35.345-14.633l-5.705-43.167c-0.367-3.036-2.946-5.339-6.072-5.339l-46.389-0.186c-3.036 0-5.615 2.206-6.072 5.249l-6.625 43.263c-12.241 3.132-24.024 8.008-35.069 14.453l-34.792-26.231c-2.483-1.84-5.892-1.659-8.008 0.553l-32.952 32.676c-2.116 2.116-2.393 5.525-0.643 8.008l25.774 35.345c-6.625 11.231-11.597 23.285-14.82 35.802l-42.71 5.152c-3.036 0.367-5.339 2.946-5.339 6.072l-0.186 46.299c0 3.036 2.206 5.615 5.249 6.072l43.263 6.535c3.313 12.607 8.375 24.577 15 35.712l-26.784 34.239c-1.936 2.393-1.659 5.892 0.463 8.098l32.766 32.952c2.206 2.206 5.615 2.393 8.098 0.553l34.978-26.604c11.134 6.535 23.105 11.507 35.622 14.82l5.615 43.72c0.367 3.036 2.946 5.339 6.072 5.339l46.389 0.090c3.036 0 5.615-2.206 6.072-5.249l6.349-43.906c12.15-3.126 23.934-7.918 34.882-14.357l35.159 26.784c2.393 1.84 5.892 1.659 8.008-0.553l32.952-32.766c2.206-2.116 2.393-5.615 0.553-8.008l-26.417-35.069c6.625-11.134 11.688-23.105 15-35.622l43.263-5.705c3.036-0.367 5.339-2.946 5.339-6.072l0.186-46.389c0.090-2.856-2.116-5.429-5.152-5.892zM558.002 549.529c0-33.506-27.162-60.668-60.668-60.668s-60.668 27.162-60.668 60.668c0 33.506 27.162 60.668 60.668 60.668s60.668-27.162 60.668-60.668zM494.333 87.15l-200.552-38.441c-10.034-1.924-17.285-10.702-17.285-20.916l1.846 2.766h448.72l-1.846 38.868-230.877 17.724z" />
<glyph unicode="&#xe92c;" glyph-name="attachment1" d="M967.944 766.603c-0.224 16.533-6.825 32.031-18.598 43.641-11.767 11.61-27.35 17.999-43.883 17.999l-204.862-0.036c-17.551 0-34.526-7.267-46.578-19.931l-0.594-0.624-36.712-44.355c-2.435-2.943-6.020-4.627-9.841-4.627h-420.976c-61.942 0-112.336-49.842-112.336-111.112v-468.705c0-61.264 50.393-111.112 112.336-111.112h671.301c61.942 0 112.336 49.842 112.336 111.112v468.705l-1.593 119.040zM445.576 651.554c0-9.102-7.376-16.479-16.479-16.479h-242.84c-9.102 0-16.479 7.376-16.479 16.479v14.759c0 9.102 7.376 16.479 16.479 16.479h242.84c9.102 0 16.479-7.376 16.479-16.479v-14.759z" />
<glyph unicode="&#xe92d;" glyph-name="audit" d="M912.743 938.182h-783.448c-75.062 0-108.364-61.553-108.364-111.754v-739.849c0-50.195 45.313-119.53 101.409-119.53h790.409c61.643 0 90.38 61.092 90.38 111.287v734.074c0 50.195-21.32 125.772-90.38 125.772zM354.469 654.912c0-22.89-18.607-41.449-41.557-41.449h-112.713c-22.95 0-41.557 18.559-41.557 41.449v112.419c0 22.89 18.607 41.449 41.557 41.449h112.713c22.95 0 41.557-18.559 41.557-41.449v-112.419zM863.614 698.433c0-15.983-10.034-28.946-22.417-28.946h-361.136c-12.383 0-22.417 12.958-22.417 28.946v22.447c0 15.983 10.034 28.946 22.417 28.946h361.136c12.383 0 22.417-12.958 22.417-28.946v-22.447zM350.641 402.001c0-22.89-18.607-41.449-41.557-41.449h-112.713c-22.95 0-41.557 18.559-41.557 41.449v112.419c0 22.89 18.607 41.449 41.557 41.449h112.713c22.95 0 41.557-18.559 41.557-41.449v-112.419zM859.786 445.523c0-15.983-10.034-28.946-22.417-28.946h-361.136c-12.383 0-22.417 12.958-22.417 28.946v22.447c0 15.983 10.034 28.946 22.417 28.946h361.136c12.383 0 22.417-12.958 22.417-28.946v-22.447zM350.641 137.895c0-22.89-18.607-41.449-41.557-41.449h-112.713c-22.95 0-41.557 18.559-41.557 41.449v112.419c0 22.89 18.607 41.449 41.557 41.449h112.713c22.95 0 41.557-18.559 41.557-41.449v-112.419zM859.786 181.416c0-15.983-10.034-28.946-22.417-28.946h-361.136c-12.383 0-22.417 12.958-22.417 28.946v22.447c0 15.983 10.034 28.946 22.417 28.946h361.136c12.383 0 22.417-12.958 22.417-28.946v-22.447zM197.707 742.32l42.665-47.667 78.231 82.604 33.625-30.905-114.875-123.879-76.464 88.379 36.818 31.469zM197.707 490.458l42.665-47.667 78.231 82.598 33.625-30.905-114.875-123.879-76.464 88.379 36.818 31.475z" />
<glyph unicode="&#xe92e;" glyph-name="audits" d="M691.607 90.378h-359.215c-49.731 0-96.488 19.369-131.655 54.536s-54.536 81.924-54.536 131.655v342.869c0 49.731 19.369 96.488 54.536 131.655s81.924 54.536 131.655 54.536h359.215c49.731 0 96.488-19.369 131.655-54.536s54.536-81.924 54.536-131.655v-342.869c0-49.731-19.369-96.488-54.536-131.655s-81.924-54.536-131.655-54.536zM332.393 769.498c-82.749 0-150.067-67.318-150.067-150.067v-342.869c0-82.749 67.318-150.067 150.067-150.067h359.215c82.749 0 150.067 67.318 150.067 150.067v342.869c0 82.749-67.318 150.067-150.067 150.067h-359.215zM225.344 506.482l108.939 116.315 134.425-178.557 236.904 241.455 92.695-107.458-338.106-369.119-234.851 297.364zM703.896 632.376l-238.806-243.394-133.823 177.756-58.311-62.254 189.268-239.655 287.743 314.138-46.077 53.416z" />
<glyph unicode="&#xe92f;" glyph-name="comment" horiz-adv-x="1018" d="M921.284 863.067h-824.074c-39.38 0-71.424-28.283-71.424-63.053v-546.514c0-34.764 32.038-63.053 71.424-63.053h111.327v-208.453l258.815 208.453h453.926c39.38 0 71.424 28.283 71.424 63.053v546.514c0 34.764-32.038 63.053-71.424 63.053zM439.117 483.646c0-10.687-8.665-19.353-19.353-19.353h-255.74c-10.687 0-19.353 8.665-19.353 19.353v28.385c0 10.687 8.665 19.353 19.353 19.353h255.74c10.687 0 19.353-8.665 19.353-19.353v-28.385zM843.505 626.963c0-10.687-8.665-19.353-19.353-19.353h-660.128c-10.687 0-19.353 8.665-19.353 19.353v28.385c0 10.687 8.665 19.353 19.353 19.353h660.128c10.687 0 19.353-8.665 19.353-19.353v-28.385z" />
<glyph unicode="&#xe930;" glyph-name="comments" d="M922.909 856.863h-821.819c-39.272 0-71.228-28.206-71.228-62.881v-545.019c0-34.669 31.95-62.881 71.228-62.881h111.023v-207.882l258.106 207.882h452.684c39.272 0 71.228 28.206 71.228 62.881v545.019c0 34.669-31.95 62.881-71.228 62.881zM943.164 268.432c0-14.829-13.749-26.891-30.654-26.891h-457.821l-6.907-5.791-0.324 0.21-180.571-154.189v159.764h-141.449c-16.905 0-30.654 12.062-30.654 26.891v518.679c0 14.829 13.749 26.891 30.654 26.891h787.072c16.905 0 30.654-12.062 30.654-26.891v-518.673zM189.356 714.946h640.078c6.576 0 11.906-5.331 11.906-11.906v-30.264c0-6.576-5.331-11.906-11.906-11.906h-640.078c-6.576 0-11.906 5.331-11.906 11.906v30.264c0 6.576 5.331 11.906 11.906 11.906zM189.356 573.173h374.23c6.576 0 11.906-5.331 11.906-11.906v-30.264c0-6.576-5.331-11.906-11.906-11.906h-374.23c-6.576 0-11.906 5.331-11.906 11.906v30.264c0 6.576 5.331 11.906 11.906 11.906zM189.356 430.398h531.768c6.576 0 11.906-5.331 11.906-11.906v-30.264c0-6.576-5.331-11.906-11.906-11.906h-531.768c-6.576 0-11.906 5.331-11.906 11.906v30.264c0 6.576 5.331 11.906 11.906 11.906z" />
<glyph unicode="&#xe931;" glyph-name="config" d="M558.593 530.104v281.423c0 23.698-19.211 42.909-42.909 42.909h-4.012c-23.698 0-42.909-19.211-42.909-42.909v-281.423c-30.765-16.174-51.746-48.439-51.746-85.607s20.982-69.433 51.746-85.607v-250.453c0-23.698 19.211-42.909 42.909-42.909h4.012c23.698 0 42.909 19.211 42.909 42.909v250.453c30.765 16.174 51.746 48.439 51.746 85.607s-20.982 69.433-51.746 85.607zM513.678 395.618c-26.993 0-48.879 21.885-48.879 48.879s21.885 48.879 48.879 48.879 48.879-21.885 48.879-48.879-21.885-48.879-48.879-48.879zM851.497 729.281v82.246c0 23.698-19.211 42.909-42.909 42.909h-4.012c-23.698 0-42.909-19.211-42.909-42.909v-82.246c-30.765-16.174-51.746-48.439-51.746-85.607s20.982-69.433 51.746-85.607v-449.631c0-23.698 19.211-42.909 42.909-42.909h4.012c23.698 0 42.909 19.211 42.909 42.909v449.631c30.765 16.174 51.746 48.439 51.746 85.607s-20.982 69.433-51.746 85.607zM806.582 594.796c-26.993 0-48.879 21.885-48.879 48.879s21.885 48.879 48.879 48.879 48.879-21.885 48.879-48.879-21.885-48.879-48.879-48.879zM265.682 223.278v588.249c0 23.698-19.211 42.909-42.909 42.909h-4.012c-23.698 0-42.909-19.211-42.909-42.909v-588.249c-30.765-16.174-51.746-48.439-51.746-85.607 0-53.385 43.276-96.661 96.661-96.661s96.661 43.276 96.661 96.661c0 37.168-20.982 69.433-51.746 85.607zM220.767 86.805c-27.56 0-49.903 22.343-49.903 49.903s22.343 49.903 49.903 49.903 49.903-22.343 49.903-49.903-22.343-49.903-49.903-49.903z" />
<glyph unicode="&#xe932;" glyph-name="control-point" d="M684.191 459.578c0-86.661-70.252-156.913-156.913-156.913s-156.913 70.252-156.913 156.913c0 86.661 70.252 156.913 156.913 156.913s156.913-70.252 156.913-156.913zM110.302 496.376h184.777v-85.058h-184.777v85.058zM748.23 489.066h184.777v-85.058h-184.777v85.058zM484.747 679.687v184.777h85.058v-184.777h-85.058zM484.747 54.692v184.777h85.058v-184.777h-85.058z" />
<glyph unicode="&#xe933;" glyph-name="cookies" d="M511.997 63.766c-51.863 0-102.184 10.163-149.567 30.206-45.758 19.351-86.843 47.058-122.125 82.334-35.281 35.281-62.983 76.367-82.334 122.125-20.043 47.383-30.206 97.704-30.206 149.567s10.163 102.184 30.206 149.567c19.351 45.758 47.058 86.843 82.334 122.125 35.281 35.281 76.373 62.983 122.125 82.334 47.383 20.043 97.704 30.206 149.567 30.206s102.184-10.163 149.567-30.206c45.758-19.351 86.843-47.058 122.125-82.334 35.281-35.281 62.983-76.367 82.334-122.125 20.043-47.383 30.206-97.704 30.206-149.567s-10.163-102.184-30.206-149.567c-19.351-45.758-47.058-86.843-82.334-122.125-35.281-35.281-76.373-62.983-122.125-82.334-47.383-20.043-97.704-30.206-149.567-30.206zM511.997 791.504c-189.406 0-343.501-154.095-343.501-343.501s154.095-343.501 343.501-343.501 343.501 154.095 343.501 343.501-154.095 343.501-343.501 343.501zM397.633 645.122c0-16.433-13.322-29.754-29.754-29.754s-29.754 13.322-29.754 29.754c0 16.433 13.322 29.754 29.754 29.754s29.754-13.322 29.754-29.754zM621.412 709.122c0-27.645-22.411-50.056-50.056-50.056s-50.056 22.411-50.056 50.056c0 27.645 22.411 50.056 50.056 50.056s50.056-22.411 50.056-50.056zM311.157 415.768c0-24.649-19.982-44.632-44.632-44.632s-44.632 19.982-44.632 44.632c0 24.649 19.982 44.632 44.632 44.632s44.632-19.982 44.632-44.632zM589.484 426.304c0-24.649-19.982-44.632-44.632-44.632s-44.632 19.982-44.632 44.632c0 24.649 19.982 44.632 44.632 44.632s44.632-19.982 44.632-44.632zM463.030 247.784c0-13.866-11.241-25.106-25.106-25.106s-25.106 11.241-25.106 25.106c0 13.866 11.241 25.106 25.106 25.106s25.106-11.241 25.106-25.106zM779.504 539.042c0-24.034-19.484-43.518-43.518-43.518s-43.518 19.484-43.518 43.518c0 24.034 19.484 43.518 43.518 43.518s43.518-19.484 43.518-43.518zM682.336 206.927c0-16.433-13.322-29.754-29.754-29.754s-29.754 13.322-29.754 29.754c0 16.433 13.322 29.754 29.754 29.754s29.754-13.322 29.754-29.754z" />
<glyph unicode="&#xe934;" glyph-name="dashboard1" d="M545.49 90.071h-66.981c-37.154 0-67.378 30.224-67.378 67.378v522.961c0 37.154 30.224 67.378 67.378 67.378h66.981c37.154 0 67.378-30.224 67.378-67.378v-522.961c0-37.154-30.224-67.378-67.378-67.378zM478.51 711.663c-17.231 0-31.254-14.022-31.254-31.254v-522.961c0-17.231 14.022-31.254 31.254-31.254h66.981c17.231 0 31.254 14.022 31.254 31.254v522.961c0 17.231-14.022 31.254-31.254 31.254h-66.981zM259.584 90.071h-66.981c-37.154 0-67.378 30.224-67.378 67.378v210.25c0 37.154 30.224 67.378 67.378 67.378h66.981c37.154 0 67.378-30.224 67.378-67.378v-210.25c0-37.154-30.224-67.378-67.378-67.378zM192.603 398.952c-17.231 0-31.254-14.022-31.254-31.254v-210.25c0-17.231 14.022-31.254 31.254-31.254h66.981c17.231 0 31.254 14.022 31.254 31.254v210.25c0 17.231-14.022 31.254-31.254 31.254h-66.981zM831.391 90.071h-66.981c-37.154 0-67.378 30.224-67.378 67.378v313.030c0 37.154 30.224 67.378 67.378 67.378h66.981c37.154 0 67.378-30.224 67.378-67.378v-313.030c0-37.154-30.224-67.378-67.378-67.378zM764.41 501.732c-17.231 0-31.254-14.022-31.254-31.254v-313.030c0-17.231 14.022-31.254 31.254-31.254h66.981c17.231 0 31.254 14.022 31.254 31.254v313.030c0 17.231-14.022 31.254-31.254 31.254h-66.981z" />
<glyph unicode="&#xe935;" glyph-name="data-breach" d="M934.631 742.625c-1.039 0.258-105.012 26.038-207.376 64.429-59.325 22.249-106.351 44.24-139.77 65.366-24.771 15.655-41.267 26.957-53.362 39.892-7.302 7.813-22.135 30.218-22.135 30.218s-14.286-21.853-23.426-31.305c-8.671-8.966-27.624-20.508-57.331-38.811-34.452-21.228-82.907-43.345-144.034-65.738-105.409-38.625-212.463-64.634-213.532-64.892l-18.922-4.57 1.964-19.367c0.342-3.381 8.641-84 29.473-182.737 28.302-134.131 64.724-232.099 108.255-291.184 55.86-75.815 132.51-144.844 173.231-179.248 59.805-50.521 115.107-88.606 140.881-97.031l7.14-2.33 7.098 2.462c29.9 10.365 91.11 59.121 134.444 97.722 38.883 34.638 111.966 104.057 164.565 179.801 40.991 59.031 75.293 156.915 101.944 290.932 19.625 98.677 27.438 179.23 27.762 182.611l1.832 19.174-18.7 4.612zM519.915 161.716c-29.828 0-54.010 24.183-54.010 54.010s24.183 54.010 54.010 54.010 54.010-24.183 54.010-54.010-24.183-54.010-54.010-54.010zM573.925 370.413c0-26.158-24.183-47.363-54.010-47.363s-54.010 21.204-54.010 47.363v278.645c0 26.158 24.183 47.363 54.010 47.363s54.010-21.204 54.010-47.363v-278.645z" />
<glyph unicode="&#xe936;" glyph-name="data-breaches" d="M636.867 525.315l-34.595 43.957-82.321-74.476-87.686 74.458-36.853-43.957 83.243-75.933-83.243-78.793 40.67-43.843 83.869 82.309 78.739-82.285 38.177 43.843-78.143 78.787 78.143 75.933zM525.526 47.227l-5.78 1.891c-20.868 6.815-65.638 37.654-114.063 78.559-32.97 27.852-95.025 83.736-140.247 145.118-35.245 47.835-64.729 127.152-87.644 235.748-16.87 79.937-23.583 145.208-23.86 147.947l-1.589 15.678 15.317 3.703c0.867 0.211 87.541 21.271 172.879 52.537 49.484 18.134 88.722 36.040 116.61 53.223 41.405 25.51 45.878 42.133 45.878 48.1h36.124c0-12.686 16.22-30.218 44.505-48.094 27.057-17.099 65.126-34.908 113.16-52.922 82.875-31.079 167.051-51.959 167.894-52.164l15.142-3.733-1.481-15.521c-0.259-2.739-6.587-67.956-22.475-147.845-21.578-108.5-49.346-187.75-82.532-235.543-42.585-61.321-101.75-117.525-133.233-145.569-35.083-31.254-84.639-70.726-108.849-79.118l-5.744-1.993zM191.676 644.682c7.159-57.516 36.474-260.379 102.846-350.467 43.030-58.401 102.726-112.124 134.479-138.952 42.585-35.974 78.95-60.954 96.133-69.347 16.292 8.501 50.634 33.469 90.955 69.389 30.284 26.979 87.132 80.943 127.591 139.199 62.682 90.263 90.323 293.601 97.042 350.93-28.562 7.586-92.761 25.522-156.322 49.346-50.4 18.887-90.757 37.81-119.939 56.24-18.947 11.969-33.433 23.854-43.566 35.811-10.422-12.029-25.347-23.993-44.897-36.028-29.989-18.466-71.472-37.449-123.293-56.42-65.56-24.005-131.776-42.097-161.030-49.701z" />
<glyph unicode="&#xe937;" glyph-name="data-field" horiz-adv-x="1018" d="M308.081 457.087l329.834 372.2 127.092-105.912-336.239-365.544-120.687 99.256zM277.013 415.671l117.258-94.56s-75.364-26.581-118.686-50.599c-33.96-18.826-51.441-29.252-51.441-29.252s18.085 40.072 23.875 58.838c20.845 67.579 29.001 115.579 29.001 115.579zM864.687 205.407h-708.051c-42.468 0-76.899-32.926-76.899-73.547v-86.034c0-40.615 34.432-73.547 76.899-73.547h708.051c42.468 0 76.899 32.926 76.899 73.547v86.034c0 40.615-34.432 73.547-76.899 73.547zM193.697 19.692h-37.724v138.3h37.724v-138.3zM665.924 860.2l128.293-105.864 37.156 42.372c13.102 14.942 11.364 37.73-3.854 50.515l-69.228 58.145c-15.229 12.792-37.76 11.591-51.543-2.736l-40.813-42.426z" />
<glyph unicode="&#xe938;" glyph-name="dataprocessing" d="M833.709 31.272h-643.418v835.979h498.378l145.039-136.297v-699.687zM226.416 67.396h571.169v647.933l-123.226 115.797h-447.942v-763.73zM545.075 257.633c-37.238 0-68.365-26.166-76.006-61.11l-96.067-2.198-0.277 185.74 67.48 0.753c10.47-30.609 39.484-52.621 73.64-52.621 42.976 0 77.812 34.836 77.812 77.812s-34.836 77.812-77.812 77.812c-36.624 0-67.33-25.305-75.608-59.382l-128.543 1.373-0.837 203.868 83.664 0.361c9.386-32.428 39.297-56.137 74.747-56.137 42.976 0 77.812 34.836 77.812 77.812s-34.836 77.812-77.812 77.812c-34.812 0-64.277-22.861-74.218-54.385h-128.814l-3.071-248.217-51.556 0.343v-50.225l113.948-0.452-3.697-215.837 152.258-8.044c11.006-29.61 39.514-50.707 72.953-50.707 42.976 0 77.812 34.836 77.812 77.812s-34.836 77.812-77.812 77.812zM514.604 441.633c17.96 0 32.524-14.558 32.524-32.524s-14.558-32.524-32.524-32.524-32.524 14.558-32.524 32.524 14.558 32.524 32.524 32.524zM468.78 683.691c17.96 0 32.524-14.558 32.524-32.524s-14.558-32.524-32.524-32.524-32.524 14.558-32.524 32.524 14.558 32.524 32.524 32.524zM547.128 145.618c-17.96 0-32.524 14.558-32.524 32.524s14.558 32.524 32.524 32.524 32.524-14.558 32.524-32.524-14.558-32.524-32.524-32.524z" />
<glyph unicode="&#xe939;" glyph-name="data-processing" d="M563.49 171.639c21.746-1.204 38.398-19.809 37.193-41.555s-19.809-38.398-41.555-37.193c-21.746 1.204-38.398 19.809-37.193 41.555s19.809 38.398 41.555 37.193zM561.316 412.338c0-21.779-17.655-39.434-39.434-39.434s-39.434 17.655-39.434 39.434c0 21.779 17.655 39.434 39.434 39.434s39.434-17.655 39.434-39.434zM505.743 705.862c0-21.779-17.655-39.434-39.434-39.434s-39.434 17.655-39.434 39.434c0 21.779 17.655 39.434 39.434 39.434s39.434-17.655 39.434-39.434zM713.264 902.045h-551.425v-467.762l52.714-0.35 3.721 300.984h156.2c12.055 38.228 47.787 65.945 89.996 65.945 52.111 0 94.356-42.245 94.356-94.356s-42.245-94.356-94.356-94.356c-42.993 0-79.261 28.754-90.641 68.074l-101.448-0.44 1.013-247.215 155.868-1.664c10.035 41.322 47.274 72.006 91.684 72.006 52.111 0 94.356-42.245 94.356-94.356s-42.245-94.356-94.356-94.356c-41.419 0-76.607 26.692-89.296 63.81l-81.824-0.911 0.338-225.233 116.494 2.666c9.269 42.377 47.009 74.105 92.167 74.105 52.111 0 94.356-42.245 94.356-94.356s-42.245-94.356-94.356-94.356c-40.55 0-75.124 25.582-88.464 61.483l-178.646-0.326-1.508 271.796-128.369 0.507v-396.329h711.901v774.186l-160.476 150.803z" />
<glyph unicode="&#xe93a;" glyph-name="dataset" horiz-adv-x="1018" d="M958.013 753.16c0-63.577-201.696-115.117-450.5-115.117s-450.5 51.54-450.5 115.117c0 63.577 201.696 115.117 450.5 115.117s450.5-51.54 450.5-115.117zM61.087 619.501v-168.111s96.055-118.514 480.058-118.514c310.449 0 420.942 109.078 420.942 109.078v177.546s-55.036-113.571-444.389-114.368c-363.868-0.749-456.616 114.368-456.616 114.368zM70.259 314.348v-168.111s96.055-118.514 480.058-118.514c310.449 0 420.942 109.078 420.942 109.078v177.546s-55.036-113.571-444.389-114.368c-363.868-0.749-456.616 114.368-456.616 114.368z" />
<glyph unicode="&#xe93b;" glyph-name="data-subject" d="M401.86 155.209l0.668 87.343-34.776 0.759-0.566-87.493c-32.428-7.291-56.751-36.161-56.962-70.822-0.247-40.345 32.253-73.248 72.598-73.495s73.248 32.253 73.495 72.598c0.211 34.077-22.951 62.844-54.464 71.111zM382.919 47.931c-20.121 0.126-36.335 16.539-36.215 36.66 0.126 20.121 16.539 36.335 36.66 36.215 20.121-0.126 36.335-16.539 36.215-36.66-0.126-20.121-16.539-36.335-36.66-36.215zM903.164 718.767c-34.077 0.211-62.844-22.951-71.111-54.464l-97.018 0.747-0.759-34.788 97.163-0.632c7.291-32.428 36.161-56.751 70.822-56.962 40.345-0.247 73.248 32.253 73.495 72.598s-32.253 73.248-72.598 73.495zM902.67 609.154c-20.121 0.126-36.335 16.539-36.215 36.66 0.126 20.121 16.539 36.335 36.66 36.215 20.121-0.126 36.335-16.539 36.215-36.66-0.126-20.121-16.539-36.335-36.66-36.215zM774.29 211.87h-500.768v671.107h387.073l113.689-111.167v-559.934zM314.511 252.853h418.796v501.708l-89.414 87.427h-329.382v-589.141zM154.576 413.522c-7.49 32.386-36.51 56.523-71.171 56.523-40.345 0-73.050-32.705-73.050-73.050s32.705-73.050 73.050-73.050c34.077 0 62.706 23.336 70.774 54.897l139.838-0.211v34.842l-139.44 0.048zM83.225 360.69c-20.121 0-36.437 16.316-36.437 36.437s16.316 36.437 36.437 36.437 36.437-16.316 36.437-36.437-16.316-36.437-36.437-36.437zM633.417 92.449l1.072 139.838-34.842 0.217-0.903-139.44c-32.428-7.291-56.751-36.161-56.962-70.822-0.247-40.345 32.253-73.248 72.598-73.495s73.248 32.253 73.495 72.598c0.211 34.077-22.951 62.844-54.464 71.111zM614.476-14.829c-20.121 0.126-36.335 16.539-36.215 36.66 0.126 20.121 16.539 36.335 36.66 36.215 20.121-0.126 36.335-16.539 36.215-36.66-0.126-20.121-16.539-36.335-36.66-36.215zM602.416 619.853c0-39.802-32.266-72.068-72.068-72.068s-72.068 32.266-72.068 72.068c0 39.802 32.266 72.068 72.068 72.068s72.068-32.266 72.068-72.068zM652.039 384.864c-2.173 80.064-58.341 131.415-127.32 131.415s-125.147-51.351-127.32-131.415h254.635z" />
<glyph unicode="&#xe93c;" glyph-name="data-subject-request" d="M420.671 179.893l0.662 86.503-34.439 0.752-0.56-86.647c-32.116-7.221-56.204-35.817-56.415-70.141-0.247-39.957 31.947-72.542 71.898-72.789 39.957-0.247 72.542 31.947 72.789 71.898 0.211 33.747-22.728 62.24-53.936 70.43zM401.914 73.646c-19.93 0.12-35.985 16.38-35.865 36.31s16.38 35.985 36.31 35.865c19.93-0.12 35.985-16.38 35.865-36.31s-16.38-35.985-36.31-35.865zM939.844 769.604c-34.613 0.211-63.835-23.312-72.235-55.32l-42.647 0.325 0.036-35.275 41.991-0.271c7.402-32.94 36.731-57.642 71.94-57.859 40.98-0.253 74.401 32.766 74.654 73.739 0.253 40.98-32.766 74.401-73.739 74.654zM939.345 658.26c-20.442 0.126-36.912 16.801-36.785 37.243s16.801 36.912 37.243 36.785c20.442-0.126 36.912-16.801 36.785-37.243s-16.801-36.912-37.243-36.785zM171.808 440.045c-7.606 32.898-37.086 57.42-72.295 57.42-40.98 0-74.203-33.223-74.203-74.203s33.223-74.203 74.203-74.203c34.613 0 63.69 23.703 71.892 55.765l142.045-0.217v35.389l-141.642 0.048zM99.332 386.38c-20.442 0-37.014 16.572-37.014 37.014s16.572 37.014 37.014 37.014 37.014-16.572 37.014-37.014-16.572-37.014-37.014-37.014zM658.077 100.563l0.782 101.817-35.335 0.951-0.662-102.148c-32.94-7.402-57.642-36.731-57.859-71.94-0.253-40.98 32.766-74.401 73.739-74.654 40.98-0.253 74.401 32.766 74.654 73.739 0.211 34.613-23.312 63.835-55.32 72.235zM638.839-8.41c-20.442 0.126-36.912 16.801-36.785 37.243s16.801 36.912 37.243 36.785c20.442-0.126 36.912-16.801 36.785-37.243s-16.801-36.912-37.243-36.785zM685.818 916.902h-393.183v-681.69h508.66v568.77l-115.483 112.92zM551.56 810.535c57.504 0 104.122-46.618 104.122-104.122s-46.618-104.122-104.122-104.122-104.122 46.618-104.122 104.122 46.618 104.122 104.122 104.122zM374.215 357.002c3.117 114.858 83.693 188.519 182.646 188.519s179.529-73.661 182.646-188.519h-365.291z" />
<glyph unicode="&#xe93d;" glyph-name="department" d="M109.71 838.527v-810.964h344.556v0.404h-49.793v182.692h242.597v-182.692h-49.793v-0.404h341.604v810.964h-829.172zM354.464 366.318h-117.167v142.421h117.167v-142.421zM356.536 597.923h-117.167v142.421h117.167v-142.421zM584.358 366.318h-117.167v142.421h117.167v-142.421zM586.43 597.923h-117.167v142.421h117.167v-142.421zM793.082 366.318h-105.5v142.421h105.5v-142.421zM795.154 597.923h-105.5v142.421h105.5v-142.421zM454.266 179.639h143.012v-151.673h-143.012v151.673z" />
<glyph unicode="&#xe93e;" glyph-name="documents" d="M723.897 19.754h-560.879v766.999h363.514l197.366-201.207v-565.798zM199.142 55.879h488.631v514.911l-176.407 179.839h-312.223v-694.756zM705.425 560.109l-230.251 5.25v203.332h36.124v-168.021l194.945-4.443-0.819-36.118zM260.311 465.38l345.716 2.052 0.214-36.124-345.716-2.052-0.214 36.124zM260.433 340.202h345.716v-36.124h-345.716v36.124zM260.433 209.492h345.716v-36.124h-345.716v36.124zM846.063 19.754h-140.229v36.124h104.104v554.353l-112.756 136.249-185.137 4.154 0.807 36.112 201.634-4.522 131.577-158.983v-603.488z" />
<glyph unicode="&#xe93f;" glyph-name="entity" d="M100.046 635.436c13.161 0 411.468 101.715 411.468 101.715l430.713-101.715h-842.181zM512.306 782.7s53.693 30.318 115.001 0c61.308-30.318 148.434 13.473 148.434 13.473v138.13s-78.958-57.768-131.715-13.473c-54.611 45.849-132.021 11.48-132.021 11.48l0.3-149.604zM100.046 597.754v-606.003h297.997v185.402h246.188v-185.402h297.997v606.003h-842.181zM290.219 265.911h-63.997v94.405h63.997v-94.405zM290.219 411.351h-63.997v94.405h63.997v-94.405zM415.788 265.911h-63.997v94.405h63.997v-94.405zM415.788 411.351h-63.997v94.405h63.997v-94.405zM536.995 265.911h-57.624v94.405h57.624v-94.405zM536.995 411.351h-57.624v94.405h57.624v-94.405zM661.736 265.911h-63.997v94.405h63.997v-94.405zM661.736 411.351h-63.997v94.405h63.997v-94.405zM775.742 265.911h-57.624v94.405h57.624v-94.405zM775.742 411.351h-57.624v94.405h57.624v-94.405zM448.573 145.677h145.133v-154.333h-145.133v154.333z" />
<glyph unicode="&#xe940;" glyph-name="files" d="M231.121 616.46h146.589c16.134 0 29.213-13.079 29.213-29.213s-13.079-29.213-29.213-29.213h-146.589c-16.134 0-29.213 13.079-29.213 29.213s13.079 29.213 29.213 29.213zM852.408 51.569h-675.166c-62.299 0-112.979 50.132-112.979 111.751v471.403c0 61.619 50.68 111.751 112.979 111.751h423.403c3.843 0 7.451 1.699 9.896 4.656l36.929 44.609 0.596 0.626c12.119 12.733 29.195 20.040 46.849 20.046l206.040 0.036c16.624 0 32.297-6.427 44.133-18.106s18.48-27.268 18.702-43.892l1.602-119.719v-471.403c0-61.619-50.68-111.751-112.979-111.751zM177.242 696.48c-34.73 0-62.986-27.701-62.986-61.757v-471.403c0-34.050 28.255-61.757 62.986-61.757h675.166c34.73 0 62.986 27.701 62.986 61.757v471.246l-1.596 119.213c-0.096 6.987-5.861 12.679-12.848 12.673l-206.028-0.036c-3.813 0-7.487-1.47-10.179-4.054l-35.688-43.109c-11.98-14.468-29.623-22.768-48.409-22.768h-423.403zM661.673 744.558l276.994-1.397v-46.681h-338.023l61.028 48.078z" />
<glyph unicode="&#xe941;" glyph-name="help" d="M511.997 41.808c-54.825 0-108.024 10.741-158.116 31.928-48.371 20.458-91.81 49.743-129.109 87.042s-66.583 80.732-87.042 129.109c-21.187 50.092-31.928 103.292-31.928 158.116s10.741 108.024 31.928 158.116c20.458 48.371 49.743 91.81 87.042 129.109s80.732 66.583 129.109 87.042c50.092 21.187 103.292 31.928 158.116 31.928s108.024-10.741 158.116-31.928c48.371-20.458 91.81-49.743 129.109-87.042s66.583-80.732 87.042-129.109c21.187-50.092 31.928-103.292 31.928-158.116s-10.741-108.024-31.928-158.116c-20.458-48.371-49.743-91.81-87.042-129.109s-80.732-66.583-129.109-87.042c-50.092-21.187-103.292-31.928-158.116-31.928zM511.997 811.137c-200.231 0-363.134-162.903-363.134-363.134s162.903-363.134 363.134-363.134 363.134 162.903 363.134 363.134-162.897 363.134-363.134 363.134zM648.493 651.727c30.748-27.304 46.119-63.868 46.119-109.68 0-51.194-16.382-89.095-49.147-113.72s-77.108-36.925-133.058-36.925l-2.264-69.473h-59.732l-3.028 115.544h21.921c49.894 0 88.962 7.309 117.194 21.934 28.225 14.624 42.338 42.169 42.338 82.641 0 29.243-9.085 52.398-27.226 69.461s-42.585 25.6-73.333 25.6-55.83-8.176-73.724-24.498c-17.894-16.328-26.834-38.629-26.834-66.908h-65.024c0 29.243 6.797 54.963 20.404 77.144 13.613 22.18 32.885 39.37 57.847 51.556 24.95 12.186 53.807 18.285 86.572 18.285 49.894 0 90.215-13.655 120.963-40.959zM446.618 185.186c-9.073 8.766-13.601 19.501-13.601 32.169s4.528 23.403 13.601 32.181c9.073 8.766 20.163 13.161 33.271 13.161s23.312-4.395 32.133-13.161c8.814-8.778 13.234-19.507 13.234-32.181s-4.419-23.403-13.234-32.169c-8.826-8.778-19.531-13.161-32.133-13.161s-24.197 4.383-33.271 13.161z" />
<glyph unicode="&#xe942;" glyph-name="iteration" d="M682.22 479.013c0 2.899-2.132 5.285-4.94 5.623l-40.055 5.285c-3.068 11.59-7.755 22.667-13.891 32.982l24.46 32.469c1.703 2.217 1.534 5.454-0.513 7.417l-30.506 30.337c-1.963 2.047-5.2 2.217-7.417 0.513l-32.553-24.799c-10.14 5.967-21.048 10.394-32.3 13.293l-5.883 40.646c-0.429 2.814-2.814 4.856-5.623 4.856l-42.948-0.085c-2.899 0-5.285-2.132-5.623-4.94l-5.2-40.477c-11.59-3.068-22.667-7.67-32.982-13.722l-32.384 24.629c-2.301 1.703-5.454 1.534-7.501-0.513l-30.337-30.506c-1.963-2.047-2.217-5.285-0.429-7.501l24.799-31.702c-6.136-10.31-10.823-21.392-13.891-33.067l-40.055-6.052c-2.814-0.429-4.856-2.814-4.856-5.623l0.169-42.863c0-2.899 2.132-5.285 4.94-5.623l39.541-4.771c2.984-11.59 7.586-22.751 13.722-33.151l-23.862-32.722c-1.619-2.301-1.365-5.454 0.598-7.417l30.506-30.252c1.963-2.047 5.116-2.217 7.417-0.513l32.215 24.285c10.225-5.967 21.133-10.485 32.469-13.378l6.136-40.055c0.429-2.814 2.814-4.856 5.623-4.856l42.948 0.169c2.899 0 5.285 2.132 5.623 4.94l5.285 39.97c11.505 2.984 22.497 7.501 32.722 13.547l32.638-24.116c2.301-1.619 5.454-1.365 7.417 0.598l30.252 30.506c2.047 1.963 2.217 5.2 0.513 7.417l-24.46 32.040c5.967 10.225 10.485 21.133 13.462 32.553l40.139 6.221c2.814 0.429 4.856 2.814 4.771 5.454l-0.169 42.948zM514.5 398.059c-31.019 0-56.168 25.149-56.168 56.168s25.149 56.168 56.168 56.168 56.168-25.149 56.168-56.168-25.149-56.168-56.168-56.168zM194.251 354.507c-8.824 29.624-13.571 61.006-13.571 93.493 0 180.656 146.454 327.11 327.11 327.11 94.689 0 179.974-40.236 239.705-104.539l-52.134-30.391 183.797-51.898 7.821 58.324 15.322 114.215-52.067-30.349c-80.918 100.064-204.676 164.059-343.387 164.059-243.776 0-441.397-197.621-441.397-441.397 0-69.951 16.277-136.102 45.249-194.873l19.049 100.052 64.497-3.799zM925.156 594.406l-30.21-53.825-86.064 35.47c16.748-39.33 26.019-82.609 26.019-128.051 0-180.656-146.454-327.11-327.11-327.11-94.012 0-178.76 39.668-238.431 103.168l48.492 34.232-92.593 24.756-76.57 23.277-12.979-92.206 0.042-0.066-1.866-12.913v-0.012s-0.954-6.583-0.954-6.583v0l-10.763-74.414 55.365 39.088c80.834-90.515 198.419-147.499 329.321-147.499 243.776 0 441.397 197.621 441.397 441.397 0 49.41-8.123 96.923-23.095 141.284z" />
<glyph unicode="&#xe943;" glyph-name="project" d="M855.663 882.701h-594.221c-42.678-3.283-80.358-35.778-80.358-79.752v-691.299c0-43.974 45.537-79.752 75.203-79.752h599.376c29.666 0 53.8 35.778 53.8 79.752v691.293c0 43.974-24.135 79.752-53.8 79.752zM629.121 287.432c0-11.552-4.216-22.099-10.844-26.909-1.836-1.333-3.926-2.69-6.288-4.016-2.762-10.129-8.839-23.953-21.778-27.582-1.060-6.112-8.112-16.992-22.887-18.598v-0.103c-0.188 0.012-0.363 0.036-0.545 0.055-0.182-0.018-0.363-0.036-0.545-0.055v0.103c-14.775 1.605-21.821 12.485-22.887 18.598-12.425 3.483-18.519 16.362-21.433 26.346-1.381 0.648-2.69 1.309-3.913 1.981-10.777 5.894-17.998 21.978-17.998 40.043v14.121s13.291-26.146 65.432-25.976c55.793 0.182 63.681 25.976 63.681 25.976v-23.983zM722.079 506.51c-8.184-21.506-22.378-39.001-36.105-55.915-11.383-14.024-23.147-28.521-32.137-45.864-8.929-17.217-13.564-30.296-17.295-40.806-5.070-14.291-9.444-26.625-21.16-35.433-11.855-8.911-27.697-11.346-49.414-12.388l-0.957-0.048-0.957 0.048c-21.899 1.048-37.88 3.508-49.875 12.528-11.771 8.851-16.108 20.754-21.603 35.833-3.798 10.414-8.517 23.371-17.283 40.261-8.99 17.338-20.76 31.84-32.137 45.864-13.727 16.914-27.921 34.403-36.105 55.915-9.384 24.65-9.541 51.365-0.479 81.661 11.038 36.917 39.934 65.88 83.557 83.757 32.24 13.212 63.184 16.647 71.901 17.38h4.44c8.754-0.739 39.837-4.18 72.186-17.368 43.853-17.877 72.865-46.846 83.908-83.775 9.063-30.296 8.905-57.011-0.479-81.661zM134.758 771.841h118.263c16.805 0 30.429-14.066 30.429-31.416v0c0-17.35-13.624-31.416-30.429-31.416h-118.263c-16.805 0-30.429 14.066-30.429 31.416v0c0 17.35 13.624 31.416 30.429 31.416zM134.758 483.169h118.263c16.805 0 30.429-14.066 30.429-31.416v0c0-17.35-13.624-31.416-30.429-31.416h-118.263c-16.805 0-30.429 14.066-30.429 31.416v0c0 17.35 13.624 31.416 30.429 31.416zM134.758 343.256h118.263c16.805 0 30.429-14.066 30.429-31.416v0c0-17.35-13.624-31.416-30.429-31.416h-118.263c-16.805 0-30.429 14.066-30.429 31.416v0c0 17.35 13.624 31.416 30.429 31.416zM134.758 625.906h118.263c16.805 0 30.429-14.066 30.429-31.416v0c0-17.35-13.624-31.416-30.429-31.416h-118.263c-16.805 0-30.429 14.066-30.429 31.416v0c0 17.35 13.624 31.416 30.429 31.416zM134.758 202.651h118.263c16.805 0 30.429-14.066 30.429-31.416v0c0-17.35-13.624-31.416-30.429-31.416h-118.263c-16.805 0-30.429 14.066-30.429 31.416v0c0 17.35 13.624 31.416 30.429 31.416z" />
<glyph unicode="&#xe944;" glyph-name="repository" d="M845.182 75.559h-673.909c-62.183 0-112.769 50.039-112.769 111.543v470.525c0 61.504 50.586 111.543 112.769 111.543h422.615c3.836 0 7.437 1.695 9.878 4.647l36.86 44.526 0.595 0.625c12.096 12.71 29.141 20.002 46.762 20.008l205.656 0.036c16.593 0 32.237-6.415 44.051-18.072s18.445-27.217 18.668-43.81l1.599-119.497v-470.525c0-61.504-50.586-111.543-112.769-111.543zM171.273 719.269c-34.666 0-62.869-27.65-62.869-61.642v-470.525c0-33.986 28.203-61.642 62.869-61.642h673.909c34.666 0 62.869 27.65 62.869 61.642v470.363l-1.593 118.992c-0.096 6.974-5.85 12.655-12.824 12.649l-205.644-0.036c-3.806 0-7.473-1.467-10.16-4.046l-35.622-43.029c-11.958-14.441-29.568-22.726-48.319-22.726h-422.615zM732.443 563.171c0-30.89-98-55.931-218.889-55.931s-218.889 25.041-218.889 55.931c0 30.89 98 55.931 218.889 55.931s218.889-25.041 218.889-55.931zM296.649 498.234v-81.68s46.672-57.584 233.246-57.584c150.838 0 204.526 52.997 204.526 52.997v86.262s-26.742-55.179-215.913-55.57c-176.792-0.361-221.859 55.57-221.859 55.57zM301.104 349.964v-81.68s46.672-57.584 233.246-57.584c150.838 0 204.526 52.997 204.526 52.997v86.262s-26.742-55.179-215.913-55.57c-176.792-0.361-221.859 55.57-221.859 55.57z" />
<glyph unicode="&#xe945;" glyph-name="resources" d="M570.056 598.059c-0.809-4.686 2.246-9.166 6.908-10.108 11.315-2.276 30.806-7.228 37.557-15.319 4.287-5.138 7.421-12.915 9.588-20.004 2.922-9.57 12.535-15.458 22.407-13.809v0c6.751 1.129 11.183 7.656 9.758 14.353-2.548 11.986-7.765 30.631-20.988 41.784-16.532 13.942-27.075 15.729-40.383 19.153-11.382 2.935-22.836-4.48-24.841-16.061v0zM503.553 304.764v-14.075c0-18.006 7.197-34.037 17.939-39.912 10.549-5.766 26.664-10.893 50.629-10.893 24.34 0 40.075 7.439 49.319 14.153 6.606 4.794 10.808 15.313 10.808 26.821v23.905s-7.862-25.71-63.472-25.891c-51.97-0.169-65.217 25.891-65.217 25.891zM570.654 243.973c-0.187 0-0.362 0-0.543-0.006-0.181 0-0.362 0-0.543 0.006v-0.012c-38.348-0.417-45.485 16.55-46.674 17.299 0 0 2.862-32.829 23.863-38.716 1.057-6.092 8.085-16.937 22.812-18.537v-0.109c0.187 0.012 0.362 0.036 0.543 0.054 0.181-0.018 0.362-0.036 0.543-0.054v0.109c14.727 1.6 21.749 12.445 22.812 18.537 21 5.887 23.863 38.716 23.863 38.716-25.789-19.141-46.674-17.287-46.674-17.287zM568.341 309.396l-0.954 0.048c-21.828 1.045-37.756 3.496-49.712 12.487-11.732 8.822-16.055 20.687-21.532 35.715-3.786 10.379-8.49 23.295-17.227 40.135-8.961 17.281-20.693 31.736-32.032 45.714-13.682 16.858-27.83 34.29-35.987 55.732-9.353 24.569-9.51 51.197-0.477 81.393 11.001 36.796 39.803 65.664 83.283 83.483 32.135 13.169 62.977 16.593 71.666 17.323h4.426c8.725-0.737 39.706-4.166 71.95-17.311 43.71-17.818 72.626-46.693 83.634-83.501v0c9.033-30.196 8.876-56.824-0.477-81.393-8.157-21.435-22.305-38.873-35.987-55.732-11.346-13.978-23.072-28.427-32.032-45.714-8.9-17.16-13.519-30.196-17.239-40.673-5.054-14.244-9.413-26.537-21.091-35.317-11.817-8.882-27.606-11.309-49.253-12.348l-0.954-0.048zM632.212 624.813c-41.059 18.458-88.241 18.507-129.215-0.133-23.464-10.675-46.065-27.884-54.325-55.508-14.099-47.151 3.134-68.381 29.212-100.522 12.016-14.811 25.638-31.591 36.476-52.495 9.915-19.123 15.337-33.982 19.292-44.833 3.085-8.465 5.748-15.771 8.019-17.48 2.947-2.216 11.919-3.719 26.664-4.468 18.102 0.924 24.255 2.856 26.211 4.329 2.059 1.552 4.68 8.936 7.457 16.756 3.907 11.013 9.262 26.103 19.425 45.702 10.838 20.898 24.46 37.684 36.476 52.495 26.085 32.141 43.317 53.371 29.218 100.522v0c-8.296 27.733-31.187 44.972-54.91 55.641zM139.504 763.69h117.876c16.75 0 30.329-14.020 30.329-31.314v0c0-17.293-13.58-31.314-30.329-31.314h-117.876c-16.75 0-30.329 14.020-30.329 31.314v0c0 17.293 13.58 31.314 30.329 31.314zM139.504 475.956h117.876c16.75 0 30.329-14.020 30.329-31.314v0c0-17.293-13.58-31.314-30.329-31.314h-117.876c-16.75 0-30.329 14.020-30.329 31.314v0c0 17.293 13.58 31.314 30.329 31.314zM139.504 336.507h117.876c16.75 0 30.329-14.020 30.329-31.314v0c0-17.293-13.58-31.314-30.329-31.314h-117.876c-16.75 0-30.329 14.020-30.329 31.314v0c0 17.293 13.58 31.314 30.329 31.314zM139.504 618.232h117.876c16.75 0 30.329-14.020 30.329-31.314v0c0-17.293-13.58-31.314-30.329-31.314h-117.876c-16.75 0-30.329 14.020-30.329 31.314v0c0 17.293 13.58 31.314 30.329 31.314zM139.504 196.356h117.876c16.75 0 30.329-14.020 30.329-31.314v0c0-17.293-13.58-31.314-30.329-31.314h-117.876c-16.75 0-30.329 14.020-30.329 31.314v0c0 17.293 13.58 31.314 30.329 31.314zM858.049 26.161h-597.415c-29.569 0-74.957 35.661-74.957 79.491v689.037c0 43.831 37.557 76.219 80.095 79.491h592.27c29.569 0 53.624-35.661 53.624-79.491v-689.037c0-43.831-24.056-79.491-53.624-79.491zM270.452 830.41c-16.363 0-37.865-17.408-37.865-37.104l-4.209-687.171c0-19.696 30.184-36.204 43.474-36.204h574.512c13.29 0 25.505 15.572 25.505 35.268v689.043c0 19.696-25.312 36.168-38.595 36.168h-562.823z" />
<glyph unicode="&#xe946;" glyph-name="risk" d="M137.176 287.944c4.57 215.443 181.247 389.299 397.764 389.299s393.194-173.856 397.764-389.299h70.201c-1.067 60.145-13.402 118.523-36.71 173.633-23.573 55.737-57.317 105.789-100.291 148.764s-93.026 76.718-148.764 100.291c-57.727 24.417-119.023 36.794-182.194 36.794s-124.473-12.377-182.2-36.794c-55.737-23.573-105.789-57.317-148.764-100.291s-76.718-93.026-100.291-148.764c-23.308-55.11-35.643-113.488-36.71-173.633h70.201zM585.981 273.571l-258.822 322.686 166.567-375.312c43.034-62.315 128.078-8.422 92.255 52.632zM539.564 212.516c-19.787 0-35.824 16.037-35.824 35.824s16.037 35.824 35.824 35.824 35.824-16.037 35.824-35.824-16.037-35.824-35.824-35.824zM783.971 537.331c-0.271 0.066-27.184 6.74-53.682 16.682-15.356 5.758-27.534 11.455-36.186 16.923-6.415 4.051-10.888 8.049-12.944 11.479-1.423 2.375-3.919 3.901-6.686 3.901v0c-3.093 0-5.987-1.555-7.669-4.154-1.754-2.707-5.462-6.487-13.149-11.226-8.917-5.492-21.463-11.22-37.289-17.020-27.287-9.996-55.002-16.73-55.279-16.797l-4.895-1.182 0.506-5.016c0.090-0.874 2.237-21.746 7.633-47.309 7.325-34.727 16.754-60.084 28.022-75.38 14.463-19.63 34.305-37.5 44.843-46.405 15.482-13.077 29.801-22.94 36.469-25.116l1.845-0.603 1.839 0.639c7.741 2.683 23.585 15.301 34.805 25.297 10.068 8.965 28.987 26.937 42.6 46.549 10.611 15.283 19.491 40.623 26.389 75.313 5.082 25.545 7.102 46.399 7.186 47.273l0.476 4.962-4.841 1.194zM676.608 386.945c-7.723 0-13.981 6.258-13.981 13.981s6.258 13.981 13.981 13.981 13.981-6.258 13.981-13.981-6.258-13.981-13.981-13.981zM690.589 440.97c0-6.77-6.258-12.263-13.981-12.263s-13.981 5.486-13.981 12.263v72.136c0 6.77 6.258 12.263 13.981 12.263s13.981-5.486 13.981-12.263v-72.136z" />
<glyph unicode="&#xe947;" glyph-name="risk-evaluation" horiz-adv-x="1031" d="M151.083 263.119c4.921 264.834 157.6 433.39 356.421 428.337 218.065-5.541 371.063-163.502 375.984-428.337h135.706c-1.15 73.933-14.419 145.692-39.493 213.439-25.363 68.518-61.67 130.044-107.903 182.866s-100.085 94.303-160.051 123.28c-62.104 30.013-128.056 45.233-196.021 45.233s-133.917-15.22-196.021-45.233c-59.966-28.983-113.818-70.458-160.051-123.28-46.233-52.828-82.534-114.348-107.903-182.866-25.080-67.747-38.349-139.5-39.493-213.439h138.826zM585.219 298.48l-261.835 340.466 168.507-395.999c43.541-65.748 129.568-8.89 93.327 55.533zM538.264 234.058c-20.015 0-36.241 16.925-36.241 37.795s16.226 37.795 36.241 37.795 36.241-16.925 36.241-37.795-16.226-37.795-36.241-37.795z" />
<glyph unicode="&#xe948;" glyph-name="search" d="M365.314 234.297c-45.366 0-89.384 8.893-130.837 26.425-40.026 16.93-75.97 41.164-106.832 72.020-30.862 30.862-55.090 66.8-72.020 106.832-17.532 41.453-26.425 85.476-26.425 130.837s8.893 89.384 26.425 130.837c16.93 40.026 41.164 75.97 72.020 106.832 30.862 30.862 66.8 55.090 106.832 72.020 41.453 17.532 85.476 26.425 130.837 26.425s89.384-8.893 130.837-26.425c40.026-16.93 75.97-41.164 106.832-72.020 30.862-30.862 55.090-66.8 72.020-106.832 17.532-41.453 26.425-85.476 26.425-130.837s-8.893-89.384-26.425-130.837c-16.93-40.026-41.164-75.97-72.020-106.832-30.862-30.862-66.8-55.090-106.832-72.020-41.453-17.532-85.476-26.425-130.837-26.425zM365.314 856.118c-157.538 0-285.708-128.169-285.708-285.708s128.169-285.708 285.708-285.708 285.708 128.169 285.708 285.708-128.169 285.708-285.708 285.708zM927.169-29.038c-0.939 0-1.854 0.018-2.745 0.060-29.658 1.276-49.725 21.915-55.896 29.182l-354.103 317.196 104.604 104.707 351.737-303.951c4.287-3.612 33.283-29.303 35.757-64.494 1.331-18.911-5.274-36.979-19.11-52.254-22.481-24.829-44.722-30.453-60.243-30.453zM906.764 33.048c0.963-1.144 9.886-11.361 20.001-11.674 8.604-0.295 17.418 7.399 23.282 13.872 5.918 6.532 6.424 11.325 6.201 14.769-0.789 12.258-13.505 25.763-18.002 29.628l-0.307 0.259-316.401 273.413-33.849-33.885 317.919-284.787 1.156-1.602z" />
<glyph unicode="&#xe949;" glyph-name="security-measure" horiz-adv-x="1031" d="M955.035 739.807c-1.040 0.259-105.134 26.068-207.61 64.504-59.394 22.275-106.474 44.291-139.932 65.442-24.8 15.674-41.315 26.988-53.424 39.938-7.311 7.822-22.161 30.253-22.161 30.253s-14.303-21.878-23.453-31.341c-8.681-8.976-27.656-20.531-57.398-38.856-34.491-21.253-83.003-43.395-144.2-65.815-105.531-38.67-212.708-64.708-213.778-64.967l-18.944-4.575 1.966-19.389c0.343-3.385 8.651-84.097 29.507-182.948 28.335-134.286 64.798-232.368 108.38-291.521 55.925-75.903 132.663-145.012 173.431-179.449 59.875-50.58 115.24-88.715 141.044-97.144l7.148-2.333 7.106 2.465c29.934 10.377 91.216 59.189 134.599 97.835 38.928 34.678 112.096 104.178 164.756 180.008 41.039 59.099 75.38 157.096 102.062 291.269 19.648 98.791 27.469 179.437 27.794 182.822l1.834 19.197-18.722 4.617zM332.608 449.843l75.157 58.035 90.867-106.246 178.644 182.077 62.79-58.546-246.713-269.348-160.746 194.029z" />
<glyph unicode="&#xe94a;" glyph-name="settings" d="M982.945 372.395l-114.135-17.689c-8.483-32.47-21.325-63.489-38.286-92.569l69.545-91.112c4.847-6.298 4.359-15.509-1.451-21.085l-86.024-86.753c-5.575-5.575-14.54-6.298-21.085-1.698l-92.81 68.576c-29.080-17.207-60.34-30.049-93.050-38.527l-15.022-113.647c-0.969-7.996-7.755-14.052-15.991-14.052l-122.131-0.488c-7.996 0-14.781 5.816-15.991 13.812l-17.448 113.888c-32.229 8.236-63.248 21.085-92.322 38.045l-91.599-69.064c-6.545-4.847-15.509-4.359-21.085 1.451l-86.753 86.024c-5.575 5.575-6.298 14.54-1.698 21.085l67.848 93.050c-17.448 29.562-30.531 61.309-39.014 94.261l-112.437 13.571c-7.996 0.969-14.052 7.755-14.052 15.991l-0.482 121.89c0 7.996 5.816 14.781 13.812 15.991l113.888 17.207c8.724 33.198 22.054 64.699 39.496 94.020l-70.515 90.142c-5.088 6.298-4.359 15.509 1.21 21.325l86.265 86.753c5.816 5.816 14.781 6.298 21.325 1.451l92.081-70.033c29.321 17.207 60.821 30.29 93.779 39.014l14.781 115.104c0.969 7.996 7.755 14.052 15.991 14.052l122.131 0.241c7.996 0 14.781-5.816 15.991-13.812l16.72-115.586c31.988-8.236 63.001-20.838 91.84-37.804l92.569 70.515c6.298 4.847 15.509 4.359 21.085-1.451l86.753-86.265c5.816-5.575 6.298-14.781 1.451-21.085l-69.545-92.322c17.448-29.321 30.772-60.821 39.496-93.779l113.888-15.022c7.996-0.969 14.052-7.755 14.052-15.991l0.488-122.131c0.241-7.514-5.575-14.299-13.571-15.509zM940.589 493.056l-105.11 13.8c-6.442 0.921-11.5 5.521-12.878 11.728-8.050 35.191-22.078 68.311-41.627 98.903-3.45 5.292-3.221 12.421 0.692 17.478l64.169 85.332-63.248 63.019-85.561-65.090c-5.057-3.907-11.957-4.142-17.249-0.921-30.363 18.628-63.019 32.199-97.289 39.791-6.207 1.379-10.807 6.442-11.728 12.65l-15.413 106.717-89.703-0.229-13.8-106.26c-0.921-6.442-5.521-11.5-11.728-12.878-35.191-8.050-68.311-21.849-99.131-41.17-5.292-3.45-12.421-3.221-17.478 0.692l-85.103 64.633-62.561-63.019 65.090-83.261c3.907-5.057 4.371-12.192 0.921-17.713-19.549-30.591-33.578-63.94-41.627-99.131-1.379-6.207-6.442-10.807-12.65-11.728l-105.11-15.871 0.229-89.010 103.96-12.878c6.442-0.692 11.728-5.521 13.107-11.957 7.821-34.962 21.62-68.311 41.17-99.131 3.45-5.292 3.221-12.192-0.692-17.249l-62.79-85.789 63.483-63.019 84.639 63.94c2.757 2.071 5.979 2.992 9.2 2.992 2.757 0 5.521-0.692 8.050-2.3 30.363-18.863 63.019-32.428 97.518-40.020 6.207-1.379 10.807-6.442 11.728-12.65l16.099-105.339 89.239 0.229 14.028 104.881c0.921 6.442 5.521 11.5 11.728 12.878 34.728 8.050 67.848 21.62 98.21 40.712 5.292 3.45 12.192 2.992 17.249-0.692l86.018-63.248 63.019 63.483-64.169 84.182c-3.907 5.057-4.142 11.957-0.921 17.478 19.092 30.363 32.662 63.248 40.477 97.753 1.379 6.207 6.442 10.807 12.65 11.728l105.339 16.328-0.458 89.239zM510.179 254.629c-106.862 0-193.856 86.994-193.856 193.856s86.994 193.856 193.856 193.856 193.856-86.994 193.856-193.856-86.994-193.856-193.856-193.856zM510.179 610.111c-89.173 0-161.627-72.453-161.627-161.627s72.453-161.627 161.627-161.627 161.627 72.453 161.627 161.627-72.694 161.627-161.627 161.627z" />
<glyph unicode="&#xe94b;" glyph-name="subject-category" horiz-adv-x="1010" d="M472.63 570c0-81.711-66.24-147.951-147.951-147.951s-147.951 66.24-147.951 147.951c0 81.711 66.24 147.951 147.951 147.951s147.951-66.24 147.951-147.951zM599.271 88.341c-4.999 184.306-134.296 302.509-293.083 302.509s-288.083-118.203-293.083-302.509h586.165zM827.401 531.001c0-62.996-51.069-114.065-114.065-114.065s-114.065 51.069-114.065 114.065c0 62.996 51.069 114.065 114.065 114.065s114.065-51.069 114.065-114.065zM514.448 306.599c-55.436-50.214-91.111-125.418-93.629-218.258h185.179s-7.481 46.052-31.808 110.337c-17.099 45.185-43.468 85.407-59.743 107.921zM699.616 376.106c-42.445 0-82.667-8.878-118.679-25.532 14.359-13.534 36.163-39.614 67.952-89.72 55.713-87.822 54.461-172.507 54.461-172.507h275.062c-4.758 175.319-127.749 287.764-278.796 287.764z" />
<glyph unicode="&#xe94c;" glyph-name="tag" d="M938.852 665.407l-169.791 187.407c-35.287 38.95-95.468 41.915-134.419 6.627l-518.801-470.040c-13.054-11.827-21.607-26.759-25.562-42.656-1.197-4.805-1.974-9.701-2.327-14.622l-21.322-134.157c-2.211-8.34-3.614-17.009-4.119-25.914l-0.012-0.067c-0.085-1.531-0.152-3.056-0.188-4.598-1.506-70.398 53.639-128.994 122.907-132.882h0.006s0.091 0 0.091 0c2.952-0.164 5.929-0.237 8.93-0.2 4.872 0.061 9.677 0.401 14.403 0.984l129.662 4.374c21.2-3.572 43.767 2.254 60.94 17.811l533.434 483.301c36.113 32.718 38.865 88.525 6.147 124.638zM199.405 108.774c-34.285 0-62.076 27.791-62.076 62.076s27.791 62.076 62.076 62.076 62.076-27.791 62.076-62.076-27.791-62.076-62.076-62.076z" />
<glyph unicode="&#xe94d;" glyph-name="task" d="M850.764 891.716h-613.63c-44.071-3.391-82.986-36.946-82.986-82.359v-713.884c0-45.414 47.022-82.359 77.655-82.359h618.955c30.633 0 55.557 36.946 55.557 82.359v713.884c0 45.414-24.923 82.359-55.557 82.359zM317.319 325.705l69.621 59.893 71.885-84.052 178.969 182.409 62.905-58.653-247.163-269.84-136.218 170.236zM749.077 641.205c0-10.649-8.631-19.28-19.28-19.28h-399.125c-10.649 0-19.28 8.631-19.28 19.28v45.733c0 10.649 8.631 19.28 19.28 19.28h399.125c10.649 0 19.28-8.631 19.28-19.28v-45.733z" />
<glyph unicode="&#xe94e;" glyph-name="tasks" d="M343.681 810.090h39.412v-724.18h-39.412v724.18zM645.766 801.956h39.412v-705.871h-39.412v705.871zM924.947 66.204h-825.894c-39.466 0-71.58 32.109-71.58 71.58v620.43c0 39.466 32.109 71.58 71.58 71.58h825.888c39.466 0 71.58-32.109 71.58-71.58v-620.436c0-39.466-32.109-71.58-71.58-71.58zM99.053 790.384c-17.737 0-32.169-14.432-32.169-32.169v-620.436c0-17.737 14.432-32.169 32.169-32.169h825.888c17.737 0 32.169 14.432 32.169 32.169v620.436c0 17.737-14.432 32.169-32.169 32.169h-825.888zM133.233 737.076h150.265c6.597 0 11.945-5.348 11.945-11.945v-54.12c0-6.597-5.348-11.945-11.945-11.945h-150.265c-6.597 0-11.945 5.348-11.945 11.945v54.12c0 6.597 5.348 11.945 11.945 11.945zM133.233 600.297h150.265c6.597 0 11.945-5.348 11.945-11.945v-54.12c0-6.597-5.348-11.945-11.945-11.945h-150.265c-6.597 0-11.945 5.348-11.945 11.945v54.12c0 6.597 5.348 11.945 11.945 11.945zM133.233 463.512h150.265c6.597 0 11.945-5.348 11.945-11.945v-54.12c0-6.597-5.348-11.945-11.945-11.945h-150.265c-6.597 0-11.945 5.348-11.945 11.945v54.12c0 6.597 5.348 11.945 11.945 11.945zM133.233 326.727h150.265c6.597 0 11.945-5.348 11.945-11.945v-54.12c0-6.597-5.348-11.945-11.945-11.945h-150.265c-6.597 0-11.945 5.348-11.945 11.945v54.12c0 6.597 5.348 11.945 11.945 11.945zM438.273 737.076h150.265c6.597 0 11.945-5.348 11.945-11.945v-54.12c0-6.597-5.348-11.945-11.945-11.945h-150.265c-6.597 0-11.945 5.348-11.945 11.945v54.12c0 6.597 5.348 11.945 11.945 11.945zM742.212 736.378h150.265c6.597 0 11.945-5.348 11.945-11.945v-54.12c0-6.597-5.348-11.945-11.945-11.945h-150.265c-6.597 0-11.945 5.348-11.945 11.945v54.12c0 6.597 5.348 11.945 11.945 11.945zM742.212 599.593h150.265c6.597 0 11.945-5.348 11.945-11.945v-54.12c0-6.597-5.348-11.945-11.945-11.945h-150.265c-6.597 0-11.945 5.348-11.945 11.945v54.12c0 6.597 5.348 11.945 11.945 11.945zM742.212 462.814h150.265c6.597 0 11.945-5.348 11.945-11.945v-54.12c0-6.597-5.348-11.945-11.945-11.945h-150.265c-6.597 0-11.945 5.348-11.945 11.945v54.12c0 6.597 5.348 11.945 11.945 11.945zM438.273 600.297h150.265c6.597 0 11.945-5.348 11.945-11.945v-54.12c0-6.597-5.348-11.945-11.945-11.945h-150.265c-6.597 0-11.945 5.348-11.945 11.945v54.12c0 6.597 5.348 11.945 11.945 11.945z" />
<glyph unicode="&#xe94f;" glyph-name="team" d="M484.719 644.469c0-86.363-66.696-156.374-148.969-156.374s-148.969 70.011-148.969 156.374c0 86.363 66.696 156.374 148.969 156.374s148.969-70.011 148.969-156.374zM612.231 135.395c-5.034 194.792-135.221 319.727-295.099 319.727s-290.066-124.935-295.099-319.727h590.199zM747.058 640.551c0-63.43-51.42-114.85-114.85-114.85s-114.85 51.42-114.85 114.85c0 63.43 51.42 114.85 114.85 114.85s114.85-51.42 114.85-114.85zM500.535 359.431c-55.818-50.56-91.738-126.281-94.273-219.76h186.454s-7.532 46.369-32.027 111.096c-17.217 45.496-43.768 85.995-60.154 108.664zM686.977 429.415c-42.737 0-83.236-8.939-119.495-25.707 14.458-13.627 36.411-39.886 68.42-90.337 56.097-88.427 54.835-173.694 54.835-173.694h276.954c-4.791 176.526-128.628 289.744-280.714 289.744zM944.907 640.551c0-43.444-35.219-78.663-78.663-78.663s-78.663 35.219-78.663 78.663c0 43.444 35.219 78.663 78.663 78.663s78.663-35.219 78.663-78.663z" />
<glyph unicode="&#xe950;" glyph-name="transfer" d="M975.91 207.286l-183.785 200.464v-88.653l-541.83 0.085s-97.97 6.406-133.107 61.554c-35.137 55.148-50.678 104.224-50.678 104.224s-9.007-230.133 48.65-302.118c47.335-59.1 113.961-63.283 131.018-63.338v0s545.947 0 545.947 0v-88.653l183.785 176.435zM926.749 717.542c-47.335 59.1-113.961 63.283-131.018 63.338v0s-545.947 0-545.947 0v88.653l-183.779-176.435 183.785-200.464v88.653l541.83-0.085s97.97-6.406 133.107-61.554c35.137-55.148 50.678-104.224 50.678-104.224s9.007 230.133-48.65 302.118zM484.186 501.561h61v-76.376h-61v76.376zM484.186 382.235h61v-86.984h-61v86.984zM484.186 652.614h61v-104.662h-61v104.662zM484.186 803.661h61v-104.662h-61v104.662zM484.186 930.009h61v-81.272h-61v81.272zM487.127 43.494h61v-78.733h-61v78.733zM487.127 195.771h61v-104.662h-61v104.662z" />
<glyph unicode="&#xe951;" glyph-name="user" d="M745.241 678.584c0-112.857-91.489-204.346-204.346-204.346s-204.346 91.489-204.346 204.346c0 112.857 91.489 204.346 204.346 204.346s204.346-91.489 204.346-204.346zM945.698 13.323c-6.908 254.558-185.489 417.821-404.803 417.821s-397.896-163.263-404.803-417.821h809.607z" />
<glyph unicode="&#xe952;" glyph-name="user-voice" d="M715.913 177.732c-33.909 0-66.613 10.464-97.199 31.097-28.514 19.236-53.952 46.504-75.608 81.039-43.307 69.070-67.155 160.459-67.155 257.32 0 79.636 15.985 155.377 46.227 219.028 14.793 31.139 32.572 58.353 52.844 80.889 21.085 23.439 44.409 41.302 69.323 53.091 23.053 10.91 47.13 16.443 71.568 16.443 33.909 0 66.613-10.464 97.199-31.097 28.514-19.236 53.952-46.504 75.608-81.039 43.307-69.070 67.155-160.459 67.155-257.32s-23.848-188.25-67.155-257.32c-21.651-34.535-47.094-61.803-75.608-81.039-30.585-20.633-63.29-31.097-97.199-31.097zM715.913 872.025c-17.785 0-35.444-4.088-52.483-12.156-84.116-39.815-142.86-168.394-142.86-312.681 0-88.589 21.428-171.555 60.34-233.622 36.883-58.823 84.826-91.22 135.003-91.22s98.12 32.398 135.003 91.22c38.912 62.062 60.34 145.033 60.34 233.622s-21.428 171.555-60.34 233.622c-36.883 58.823-84.826 91.22-135.003 91.22zM678.886 182.043l-446.798 109.589c-11.807 0.175-55.017 2.095-100.137 19.892-71.52 28.207-113.154 81.99-120.397 155.54-8.050 81.737 28.623 133.468 60.809 162.469 30.874 27.822 63.368 40.164 70.611 42.693l510.684 232.039 18.46-40.622-514.092-233.43c-1.18-0.397-30.218-10.326-56.944-34.872-34.884-32.048-50.068-73.736-45.125-123.913 5.533-56.191 36.227-95.874 91.22-117.946 43.717-17.544 86.933-17.249 87.361-17.249l2.872 0.042 2.745-0.686 449.369-110.222-10.627-43.331zM597.786 541.096c-0.927 31.976-10.807 61.52-27.822 83.188-15.455 19.694-34.914 30.224-54.789 29.64l-1.294 44.596c17.641 0.518 34.806-3.618 51.008-12.276 15.040-8.038 28.556-19.616 40.17-34.415 22.861-29.128 36.118-67.998 37.323-109.445l-44.596-1.294zM523.28 376.982l-1.294 44.596c19.676 0.572 38.37 12.74 52.645 34.27 15.871 23.932 24.065 55.77 23.083 89.649l44.596 1.294c1.252-43.006-9.579-84.055-30.495-115.604-10.669-16.093-23.445-28.96-37.961-38.244-15.75-10.073-32.771-15.443-50.574-15.961zM301.849-18.188c-32.578 0-54.169 11.355-56.992 12.92l-9.483 5.262-54.638 340.406 174.114-31.771-1.114-19.676c-1.951-34.776-1.114-134.082 25.847-175.318 24.522-37.503 20.729-65.758 13.234-82.857-10.596-24.167-35.781-41.736-67.366-46.998-8.363-1.397-16.262-1.969-23.601-1.969zM275.713 30.212c9.001-2.727 23.902-5.503 42.404-2.42 16.419 2.733 29.387 10.747 33.843 20.91 5.569 12.698-2.21 29.044-9.717 40.526-17.442 26.678-28.261 69.16-32.169 126.279-1.523 22.259-1.674 42.308-1.487 56.216l-73.796 13.468 40.923-254.972z" />
<glyph unicode="&#xe9cb;" glyph-name="link1" d="M440.236 324.234c-13.31 0-26.616 5.076-36.77 15.23-95.134 95.136-95.134 249.934 0 345.070l192 192c46.088 46.086 107.36 71.466 172.534 71.466s126.448-25.38 172.536-71.464c95.132-95.136 95.132-249.934 0-345.070l-87.766-87.766c-20.308-20.308-53.23-20.308-73.54 0-20.306 20.306-20.306 53.232 0 73.54l87.766 87.766c54.584 54.586 54.584 143.404 0 197.99-26.442 26.442-61.6 41.004-98.996 41.004s-72.552-14.562-98.996-41.006l-192-191.998c-54.586-54.586-54.586-143.406 0-197.992 20.308-20.306 20.306-53.232 0-73.54-10.15-10.152-23.462-15.23-36.768-15.23zM256-52c-65.176 0-126.45 25.38-172.534 71.464-95.134 95.136-95.134 249.934 0 345.070l87.764 87.764c20.308 20.306 53.234 20.306 73.54 0 20.308-20.306 20.308-53.232 0-73.54l-87.764-87.764c-54.586-54.586-54.586-143.406 0-197.992 26.44-26.44 61.598-41.002 98.994-41.002s72.552 14.562 98.998 41.006l192 191.998c54.584 54.586 54.584 143.406 0 197.992-20.308 20.308-20.306 53.232 0 73.54 20.306 20.306 53.232 20.306 73.54-0.002 95.132-95.134 95.132-249.932 0.002-345.068l-192.002-192c-46.090-46.088-107.364-71.466-172.538-71.466z" />
<glyph unicode="&#xea39;" glyph-name="arrow-up-left2" d="M877.254 160.454l-530.744 530.746h229.49c35.346 0 64 28.654 64 64s-28.654 64-64 64h-384c-25.886 0-49.222-15.592-59.128-39.508-3.282-7.924-4.84-16.242-4.838-24.492h-0.034v-384c0-35.346 28.654-64 64-64s64 28.654 64 64v229.49l530.746-530.744c12.496-12.498 28.876-18.746 45.254-18.746s32.758 6.248 45.254 18.746c24.994 24.992 24.994 65.516 0 90.508z" />
<glyph unicode="&#xea3a;" glyph-name="arrow-up2" d="M877.254 544.454l-320 320c-24.992 24.994-65.514 24.994-90.508 0l-320-320c-24.994-24.994-24.994-65.516 0-90.51 24.994-24.996 65.516-24.996 90.51 0l210.744 210.746v-613.49c0-35.346 28.654-64 64-64s64 28.654 64 64v613.49l210.746-210.746c12.496-12.496 28.876-18.744 45.254-18.744s32.758 6.248 45.254 18.746c24.994 24.994 24.994 65.514 0 90.508z" />
<glyph unicode="&#xea3b;" glyph-name="arrow-up-right2" d="M237.254 69.946l530.746 530.744v-229.49c0-35.346 28.654-64 64-64s64 28.654 64 64v384c0 25.884-15.594 49.222-39.508 59.126-7.924 3.284-16.242 4.84-24.492 4.838v0.036h-384c-35.346 0-64-28.654-64-64 0-35.348 28.654-64 64-64h229.49l-530.744-530.746c-12.498-12.496-18.746-28.876-18.746-45.254s6.248-32.758 18.746-45.254c24.992-24.994 65.516-24.994 90.508 0z" />
<glyph unicode="&#xea3c;" glyph-name="arrow-right2" d="M621.254 69.946l320 320c24.994 24.992 24.994 65.516 0 90.51l-320 320c-24.994 24.992-65.516 24.992-90.51 0-24.994-24.994-24.994-65.516 0-90.51l210.746-210.746h-613.49c-35.346 0-64-28.654-64-64s28.654-64 64-64h613.49l-210.746-210.746c-12.496-12.496-18.744-28.876-18.744-45.254s6.248-32.758 18.744-45.254c24.994-24.994 65.516-24.994 90.51 0z" />
<glyph unicode="&#xea3d;" glyph-name="arrow-down-right2" d="M146.746 709.946l530.742-530.746h-229.488c-35.346 0-64-28.654-64-64s28.654-64 64-64h384c25.884 0 49.222 15.594 59.126 39.508 3.284 7.924 4.84 16.242 4.838 24.492h0.036v384c0 35.346-28.654 64-64 64-35.348 0-64-28.654-64-64v-229.49l-530.746 530.744c-12.496 12.498-28.874 18.746-45.254 18.746s-32.758-6.248-45.254-18.746c-24.994-24.992-24.994-65.516 0-90.508z" />
<glyph unicode="&#xea3e;" glyph-name="arrow-down2" d="M877.254 325.946l-320-320c-24.992-24.994-65.514-24.994-90.508 0l-320 320c-24.994 24.994-24.994 65.516 0 90.51 24.994 24.996 65.516 24.996 90.51 0l210.744-210.746v613.49c0 35.346 28.654 64 64 64s64-28.654 64-64v-613.49l210.746 210.746c12.496 12.496 28.876 18.744 45.254 18.744s32.758-6.248 45.254-18.746c24.994-24.994 24.994-65.514 0-90.508z" />
<glyph unicode="&#xea3f;" glyph-name="arrow-down-left2" d="M786.744 800.456l-530.744-530.744v229.49c0 35.346-28.654 64-64 64s-64-28.654-64-64v-384.002c0-25.886 15.592-49.222 39.508-59.128 7.924-3.282 16.242-4.84 24.492-4.836v-0.036l384 0.002c35.344 0 64 28.654 64 63.998 0 35.348-28.656 64-64 64h-229.49l530.744 530.746c12.496 12.496 18.746 28.876 18.746 45.256 0 16.376-6.25 32.758-18.746 45.254-24.992 24.992-65.518 24.992-90.51 0v0z" />
</font>
</defs>
</svg>
